<?xml version="1.0" standalone="no"?>
<!DOCTYPE svg PUBLIC "-//W3C//DTD SVG 1.1//EN" "http://www.w3.org/Graphics/SVG/1.1/DTD/svg11.dtd" >
<svg xmlns="http://www.w3.org/2000/svg" xmlns:xlink="http://www.w3.org/1999/xlink" version="1.1">
<metadata></metadata>
<defs>
<font id="delta_jaegermedium" horiz-adv-x="1193" >
<font-face units-per-em="2048" ascent="1638" descent="-410" />
<missing-glyph horiz-adv-x="598" />
<glyph horiz-adv-x="0" />
<glyph horiz-adv-x="682" />
<glyph unicode=" "  horiz-adv-x="598" />
<glyph unicode="&#x09;" horiz-adv-x="598" />
<glyph unicode="&#xa0;" horiz-adv-x="598" />
<glyph unicode="!" horiz-adv-x="598" d="M117 154q0 68 47 121t127 53q76 0 124 -51.5t48 -122.5q0 -73 -49 -122.5t-123 -49.5q-76 0 -125 51t-49 121zM123 1446h338l-29 -903l-276 -135z" />
<glyph unicode="&#x22;" horiz-adv-x="811" d="M66 1413q0 58 40.5 89.5t92.5 31.5q80 0 110 -64q10 -23 6 -77l-96 -531h-55l-94 506q-4 24 -4 45zM492 1413q0 58 40.5 89.5t92.5 31.5q80 0 110 -64q12 -27 8 -77l-96 -531h-55l-96 506q-4 24 -4 45z" />
<glyph unicode="#" horiz-adv-x="1366" d="M86 438v203h276l27 195h-256v204h283l55 406h213l-57 -406h200l56 406h207l-56 -406h240v-204h-266l-29 -195h252v-203h-277l-63 -438h-207l64 438h-203l-62 -438h-209l62 438h-250zM569 641h205l27 195h-203z" />
<glyph unicode="$" horiz-adv-x="1110" d="M96 61v320q178 -137 369 -137q86 0 145.5 42t59.5 124q0 36 -12 63t-39.5 47.5t-49.5 32t-63 29.5l-117 49q-27 12 -45 21t-51.5 29.5t-56.5 40.5t-51 52t-45.5 66.5t-29.5 82.5t-12 101q0 142 87.5 259.5t244.5 160.5v270h277v-250q86 -11 142.5 -28.5t127.5 -49.5v-307 q-154 127 -315 127q-99 0 -147 -45t-48 -104q0 -25 10 -48t22.5 -38t36 -32.5t39 -26t43.5 -23.5l138 -60q134 -58 211 -159t77 -236q0 -148 -88 -264t-249 -166v-293h-277v273q-60 5 -91.5 8.5t-105.5 21.5t-137 47z" />
<glyph unicode="%" horiz-adv-x="1961" d="M59 950q0 230 107 355q97 112 262 112q100 0 174 -39t114.5 -107t59.5 -147t19 -172q0 -238 -101 -360q-97 -117 -268 -117q-79 0 -142 25.5t-104.5 69t-69 104.5t-39.5 129.5t-12 146.5zM303 940q0 -121 27 -203q32 -84 96 -84q73 0 102 99q23 85 23 200q0 173 -43 242 q-29 47 -80 47q-125 0 -125 -301zM528 0l689 1399h217l-689 -1399h-217zM1167 455q0 231 107 356q98 113 264 113q100 0 174 -39.5t114.5 -107.5t59.5 -147.5t19 -172.5q0 -148 -39 -252q-36 -95 -117 -159t-215 -64q-101 0 -174.5 38.5t-114 106.5t-59.5 149.5t-19 178.5z M1411 444q0 -120 27 -202q32 -84 98 -84q73 0 102 98q23 85 23 201q0 175 -43 241q-28 50 -82 50q-125 0 -125 -304z" />
<glyph unicode="&#x26;" horiz-adv-x="1536" d="M43 410q0 161 100 276q34 39 80 70t76 44.5t71 29.5q7 3 11 4q-102 117 -102 260q0 167 130 278t347 111q213 0 340 -109.5t127 -267.5q0 -118 -70 -217q-23 -32 -50.5 -57.5t-62 -46.5t-49 -29t-49.5 -25l594 -534l-229 -252l-342 305l-115 -234q-154 -53 -299 -53 q-98 0 -188.5 30t-162 84.5t-114.5 141t-43 191.5zM403 446q0 -37 15.5 -72.5t46.5 -67t86.5 -51t126.5 -19.5q134 0 248 53l-367 342q-70 -17 -113 -67.5t-43 -117.5zM629 1108q0 -108 108 -195q23 8 44.5 18.5t56 33.5t56 61t21.5 84q0 61 -36.5 104t-102.5 43 q-65 0 -106 -43t-41 -106z" />
<glyph unicode="'" horiz-adv-x="425" d="M86 1413q0 58 40.5 89.5t92.5 31.5q38 0 67.5 -17.5t43.5 -46.5q12 -27 8 -77l-96 -531h-56l-96 506q-4 24 -4 45z" />
<glyph unicode="(" horiz-adv-x="641" d="M63 721q0 265 140 504q74 126 182 221h264q-270 -319 -270 -721q0 -125 27 -242q19 -90 50 -169.5t70.5 -143t63.5 -95.5t59 -75h-264q-34 31 -56.5 54.5t-57.5 68.5t-68 100q-140 234 -140 498z" />
<glyph unicode=")" horiz-adv-x="641" d="M-8 0q36 44 53 67t44.5 66.5t53.5 95.5q119 230 119 494q0 126 -26 242q-19 89 -49.5 167t-70.5 141.5t-63.5 96t-60.5 76.5h264q36 -33 57.5 -55t57 -67.5t67.5 -98.5q140 -236 140 -500q0 -266 -140 -504q-32 -54 -68.5 -100t-58 -67.5t-55.5 -53.5h-264z" />
<glyph unicode="*" horiz-adv-x="811" d="M37 1116l63 187l203 -68v211h199v-211l203 72l67 -187l-207 -73l125 -173l-153 -118l-131 178l-125 -178l-164 118l127 173z" />
<glyph unicode="+" horiz-adv-x="1366" d="M86 492v208h494v494h211v-494h491v-208h-491v-492h-211v492h-494z" />
<glyph unicode="," horiz-adv-x="512" d="M-41 -285l217 576h318l-330 -576h-205z" />
<glyph unicode="-" horiz-adv-x="768" d="M4 428l154 225h606l-154 -225h-606z" />
<glyph unicode="." horiz-adv-x="512" d="M82 154q0 70 48.5 122t123.5 52q79 0 126.5 -52t47.5 -122q0 -73 -49 -122.5t-123 -49.5q-76 0 -125 51t-49 121z" />
<glyph unicode="/" horiz-adv-x="811" d="M0 0l498 1446h313l-494 -1446h-317z" />
<glyph unicode="0" horiz-adv-x="1280" d="M72 702q0 122 20 228t65 198.5t111.5 158t164.5 103t220 37.5q146 -2 255 -59t173.5 -157t95.5 -226.5t31 -279.5q0 -96 -12.5 -183t-38.5 -171.5t-71 -152.5t-106 -120t-148 -80.5t-193 -28.5q-122 0 -218.5 38t-161 104t-107.5 160t-61.5 200.5t-18.5 230.5zM442 692 q0 -206 41 -323q6 -17 14.5 -33t27 -41.5t48 -41t64.5 -15.5q114 0 162 153q37 117 37 320q0 265 -68 376q-45 76 -129 76q-114 0 -160 -157q-37 -117 -37 -314z" />
<glyph unicode="1" horiz-adv-x="1280" d="M281 872v287l577 262v-1421h-358v975z" />
<glyph unicode="2" horiz-adv-x="1280" d="M150 0v266l399 439q80 88 110.5 138t30.5 113q0 30 -8.5 59t-28.5 59t-60 48.5t-95 18.5q-51 0 -97.5 -14.5t-88.5 -43.5t-68.5 -52t-63.5 -60v342q209 117 414 117q116 0 208.5 -35.5t150 -95.5t88 -135t30.5 -158q0 -63 -15 -120t-46.5 -108t-54 -81t-62.5 -76 l-309 -353h604l-193 -268h-845z" />
<glyph unicode="3" horiz-adv-x="1280" d="M166 61v324q76 -66 168 -100.5t172 -34.5q102 0 155.5 52.5t53.5 123.5q0 96 -86 147q-67 39 -205 39q-10 0 -50.5 -1t-60.5 -1l166 240q53 4 82 14q42 16 69 51t27 84q0 62 -44 104t-126 42q-151 0 -294 -150v324q94 59 198.5 85t192.5 26q195 0 317.5 -102t122.5 -265 q0 -49 -11 -91t-32 -73.5t-41 -54t-50 -41.5t-45 -27t-40 -20q40 -10 68 -19.5t74 -38.5t79 -69q76 -94 76 -219q0 -193 -150.5 -317t-376.5 -124q-93 0 -206.5 25.5t-202.5 66.5z" />
<glyph unicode="4" horiz-adv-x="1280" d="M41 311v152l553 936h436v-826h242l-182 -262h-60v-311h-342v311h-647zM428 573h260v480z" />
<glyph unicode="5" horiz-adv-x="1280" d="M147 63v322q93 -73 192.5 -104t172.5 -31q64 0 113 20t75 52t39 66t13 69q0 128 -125 194q-97 51 -269 51q-87 0 -176 -12l117 709h782v-264h-483l-39 -222q184 -4 299 -49q79 -32 136.5 -83t86.5 -109.5t41.5 -112t12.5 -106.5q0 -73 -20.5 -141.5t-66 -131t-110.5 -109 t-162 -74.5t-213 -28q-218 0 -416 94z" />
<glyph unicode="6" horiz-adv-x="1280" d="M113 549q0 262 135 489q36 61 83 120.5t88 101t78 74.5t58 49t23 16h516q-165 -83 -303 -211q-150 -143 -220 -301q33 16 55 25t61 17.5t81 8.5q184 0 310 -127t126 -326q0 -104 -36 -196.5t-102 -164t-169.5 -113.5t-230.5 -42q-245 0 -399 157.5t-154 422.5zM477 469 q0 -114 51.5 -172.5t128.5 -58.5q85 0 135 65t50 180q0 111 -49.5 169.5t-128.5 58.5q-92 0 -139.5 -68.5t-47.5 -173.5z" />
<glyph unicode="7" horiz-adv-x="1280" d="M170 1137v262h1038l-583 -1399h-383l479 1137h-551z" />
<glyph unicode="8" horiz-adv-x="1280" d="M94 385q0 96 39 170q24 45 56 79t68.5 54.5t60 30t55.5 18.5q-71 25 -119.5 61.5t-79.5 94.5q-35 69 -35 154q0 119 67.5 207t180 132t254.5 44q228 0 365 -105.5t137 -280.5q0 -111 -56.5 -188t-148.5 -111q-6 -1 -16 -4t-13 -4q6 -2 17 -5t16 -5q46 -15 87 -41t78 -66 t59 -99.5t22 -129.5q0 -184 -148 -303t-399 -119q-242 0 -394.5 114t-152.5 302zM449 426q0 -84 56 -137t138 -53q83 0 137 52.5t54 137.5q0 83 -54 139t-139 56q-82 0 -137 -56t-55 -139zM481 999q0 -74 46.5 -117.5t115.5 -43.5q67 0 113.5 42.5t46.5 118.5t-46 120 t-114 44q-74 0 -118 -47.5t-44 -116.5z" />
<glyph unicode="9" horiz-adv-x="1280" d="M74 913q0 103 35.5 195.5t101.5 164.5t170 114.5t231 42.5q248 0 401.5 -158t153.5 -420q0 -264 -135 -492q-36 -61 -83 -121t-88.5 -101t-78.5 -73.5t-58 -48.5t-22 -16h-518q177 92 301 211q154 146 224 301q-58 -27 -99 -39t-100 -12q-185 0 -310.5 126.5 t-125.5 325.5zM436 915q0 -107 47 -165q50 -62 133 -62q92 0 139.5 68.5t47.5 173.5q0 102 -47 168q-52 63 -135 63q-84 0 -134.5 -66t-50.5 -180z" />
<glyph unicode=":" horiz-adv-x="598" d="M117 154q0 70 48.5 122t123.5 52q79 0 126.5 -52t47.5 -122q0 -73 -49 -122.5t-123 -49.5q-76 0 -125 51t-49 121zM117 856q0 70 48.5 122t123.5 52q79 0 126.5 -52t47.5 -122q0 -73 -49 -122.5t-123 -49.5q-76 0 -125 51t-49 121z" />
<glyph unicode=";" horiz-adv-x="598" d="M-59 -285l217 576h317l-330 -576h-204zM152 856q0 70 48.5 122t123.5 52q79 0 126.5 -51.5t47.5 -122.5q0 -74 -49 -123t-123 -49q-76 0 -125 51t-49 121z" />
<glyph unicode="&#x3c;" horiz-adv-x="1366" d="M0 614v213l1366 625v-231l-1083 -500l1083 -498v-229z" />
<glyph unicode="=" horiz-adv-x="1366" d="M0 299v211h1366v-211h-1366zM0 684v211h1366v-211h-1366z" />
<glyph unicode="&#x3e;" horiz-adv-x="1366" d="M0 -6v229l1081 498l-1081 500v231l1366 -625v-213z" />
<glyph unicode="?" horiz-adv-x="894" d="M59 1092v299q188 86 367 86q116 0 207 -34t144 -90t80.5 -122.5t27.5 -138.5q0 -134 -82 -232q-83 -100 -244 -123v-188l-311 -143v481q1 0 21.5 1t24 1.5t21.5 2t24.5 2.5t22 3t23.5 4.5t21 6t23 7.5t20 9q90 54 90 135q0 60 -47.5 103.5t-137.5 43.5q-146 0 -295 -114z M229 154q0 70 48.5 122t123.5 52q77 0 125.5 -51t48.5 -123q0 -74 -49.5 -123t-122.5 -49q-76 0 -125 51t-49 121z" />
<glyph unicode="@" horiz-adv-x="1835" d="M141 481q0 155 45.5 302.5t131 269t200.5 213.5t261 143t304 51q280 0 445.5 -165t165.5 -429q0 -201 -86 -393q-67 -151 -175.5 -242.5t-218.5 -91.5q-43 0 -81 17q-85 37 -97 143q-117 -158 -276 -158q-118 0 -197.5 87.5t-79.5 250.5q0 146 57 281t160 221t224 86 q152 0 225 -149l25 106h161l-67 -317q-58 -275 -58 -342q0 -78 52 -78q39 0 88.5 47.5t93.5 123t74 183.5t30 217q0 122 -41 215t-111 146t-152 78.5t-175 25.5q-155 0 -300 -68t-251.5 -181t-170.5 -268.5t-64 -322.5q0 -131 40.5 -236t105 -171.5t150.5 -111t172.5 -63 t176.5 -18.5q281 0 532 178q76 51 144 119l82 -102q-338 -332 -752 -332q-91 0 -181 17.5t-180 52.5t-167 95t-137 138.5t-94 189.5t-34 242zM670 492q0 -86 30 -130q44 -63 117 -63q43 0 90 28t82 74q51 67 76 157.5t25 156.5q0 93 -44.5 143.5t-109.5 50.5 q-59 0 -110.5 -40t-84.5 -102t-52 -134.5t-19 -140.5z" />
<glyph unicode="A" horiz-adv-x="1492" d="M0 0l569 1446h367l557 -1446h-399l-99 289h-516l-104 -289h-375zM557 512h363l-154 457q-17 57 -21 80q-6 -18 -10 -32.5t-6.5 -22t-5.5 -17.5z" />
<glyph unicode="B" horiz-adv-x="1280" d="M109 0v1446h614q64 0 126 -12t122 -40.5t105 -70.5t72.5 -108t27.5 -148q0 -212 -220 -309q88 -35 125 -62q67 -45 106.5 -119.5t39.5 -162.5q0 -90 -41.5 -173.5t-118.5 -142.5q-56 -44 -126.5 -67t-118 -27t-115.5 -4h-598zM471 264h150q108 0 169.5 47t61.5 142 q0 58 -23.5 97t-67.5 58t-89.5 26t-106.5 7h-94v-377zM471 672l131 192q61 0 94 8q65 17 98 58.5t33 95.5q0 152 -217 152h-139v-506z" />
<glyph unicode="C" horiz-adv-x="1366" d="M63 707q0 123 34 237t104 212.5t169.5 171t239 114t303.5 41.5q184 0 387 -60v-321q-167 108 -342 108q-116 0 -212 -39t-158.5 -105.5t-96.5 -155t-34 -187.5q0 -105 36.5 -195.5t103 -157.5t168 -105t224.5 -38q188 0 377 78l-176 -303q-148 -39 -303 -39 q-190 0 -346.5 57.5t-260.5 158t-160.5 236t-56.5 292.5z" />
<glyph unicode="D" horiz-adv-x="1536" d="M109 0v1446h647q151 0 281.5 -48t227.5 -137t152.5 -224.5t55.5 -301.5q0 -155 -53 -292t-150 -236q-56 -57 -122.5 -97.5t-123 -61.5t-126.5 -32.5t-114 -13.5t-106 -2h-569zM483 279h107q52 0 83.5 1.5t79 11t87.5 27.5q66 30 113.5 78t72.5 104.5t36 111.5t11 112 q0 202 -118.5 319.5t-317.5 120.5h-154v-886z" />
<glyph unicode="E" horiz-adv-x="1150" d="M109 0v1446h938v-285h-562v-276h482v-283h-482v-315h670l-164 -287h-882z" />
<glyph unicode="F" horiz-adv-x="1067" d="M109 0v1446h958v-283h-580v-311h492v-285h-492v-567h-378z" />
<glyph unicode="G" horiz-adv-x="1622" d="M61 715q0 121 35.5 233.5t109.5 210t178 169.5t250 113.5t318 41.5q234 0 475 -76v-324q-208 129 -430 129q-244 0 -395 -138t-151 -355q0 -99 33 -188t94 -158.5t158 -110.5t216 -41q102 0 219 43l5 275h-342l147 260h547l-4 -697q-322 -139 -625 -139q-190 0 -347 54.5 t-265 153t-167 238t-59 306.5z" />
<glyph unicode="H" horiz-adv-x="1536" d="M109 0v1446h376v-543h564v543h378v-1446h-378v616h-564v-616h-376z" />
<glyph unicode="I" horiz-adv-x="598" d="M109 0v1446h378v-1446h-378z" />
<glyph unicode="J" horiz-adv-x="894" d="M-10 14l141 265q65 -29 119 -29q92 0 127 65.5t35 210.5v920h376v-961q0 -64 -2 -102t-14 -89.5t-35 -94.5q-62 -120 -181.5 -178t-270.5 -58q-158 0 -295 51z" />
<glyph unicode="K" horiz-adv-x="1449" d="M109 0v1446h376v-662l482 662h424l-498 -658l590 -788h-443l-555 745v-745h-376z" />
<glyph unicode="L" horiz-adv-x="1150" d="M109 0v1446h378v-1157h666l-168 -289h-876z" />
<glyph unicode="M" horiz-adv-x="1961" d="M61 0l164 1446h379l375 -803l379 803h375l170 -1446h-371l-78 940l-450 -940h-54l-444 944l-82 -944h-363z" />
<glyph unicode="N" horiz-adv-x="1622" d="M109 0v1446h331l707 -784v784h364v-1446h-243l-793 879v-879h-366z" />
<glyph unicode="O" horiz-adv-x="1705" d="M63 723q0 159 55 297.5t155.5 241.5t251 162t331.5 59q182 0 333 -60.5t249.5 -163.5t152.5 -239t54 -289q0 -120 -32.5 -233t-98 -210t-157.5 -169.5t-219 -114t-274 -41.5q-185 0 -337 57.5t-253 159.5t-156 241t-55 302zM463 725q0 -205 106.5 -340t286.5 -135 q96 0 173 42t122.5 111t69.5 150t24 166q0 213 -105.5 349t-283.5 136q-176 0 -284.5 -135.5t-108.5 -343.5z" />
<glyph unicode="P" horiz-adv-x="1280" d="M109 0v1446h634q98 0 186 -27.5t157.5 -79.5t110 -136t40.5 -189q0 -132 -72 -238q-33 -47 -75 -83t-90.5 -57t-89.5 -34.5t-93 -19t-78 -7t-67 -2.5h-187v-573h-376zM485 606l150 213q107 0 164 49q59 50 59 131q0 90 -59.5 134.5t-151.5 44.5h-162v-572z" />
<glyph unicode="Q" horiz-adv-x="1705" d="M63 721q0 158 56.5 297t157.5 242t251 163t328 60q180 0 330 -59.5t249.5 -161.5t154.5 -239.5t55 -293.5q0 -78 -13.5 -150.5t-30 -119.5t-45.5 -98.5t-44 -72t-42 -55.5l211 -210l-233 -236l-246 248q-164 -72 -344 -72q-181 0 -332 60t-251.5 163.5t-156 241.5 t-55.5 293zM467 727q0 -211 108.5 -344t282.5 -133q93 0 168.5 41t122 108.5t71.5 150t25 169.5q0 218 -108 351.5t-279 133.5q-169 0 -280 -132t-111 -345z" />
<glyph unicode="R" horiz-adv-x="1409" d="M109 0v1446h655q69 0 134.5 -14.5t125.5 -46t105 -77.5t71.5 -114.5t26.5 -151.5q0 -93 -37 -168q-18 -40 -41.5 -73t-54 -58t-45 -35t-43.5 -28l415 -680h-411l-369 612q-72 -4 -164 -4v-608h-368zM477 639l144 203q79 4 106 10q58 14 93.5 58t35.5 106q0 88 -63 129 q-22 16 -57 24.5t-61.5 9.5t-78.5 1h-119v-541z" />
<glyph unicode="S" horiz-adv-x="1110" d="M88 51v324q63 -50 135 -84q134 -60 242 -60q99 0 158 48q55 48 55 124q0 38 -13.5 67t-42 51t-50 33.5t-60.5 29.5l-82 32q-31 13 -53 23t-60 32t-65 43.5t-59.5 55.5t-52.5 70.5t-34 86.5t-14 105q0 65 18.5 127.5t60 121.5t101 103.5t148.5 71.5t196 27q191 0 369 -84 v-309q-151 129 -328 129q-54 0 -94 -15.5t-60 -40.5t-29 -50t-9 -50q0 -24 6 -44.5t21 -38t27 -29t38 -26t39.5 -21t44.5 -21.5l104 -43q27 -12 43 -20.5t48 -26t53 -34.5t49.5 -42t47 -54.5t36.5 -65t26.5 -80t8.5 -93.5q0 -93 -37 -176t-104.5 -146.5t-171.5 -101 t-230 -37.5q-215 0 -426 88z" />
<glyph unicode="T" d="M-2 1159v287h1200v-287h-410v-1159h-376v1159h-414z" />
<glyph unicode="U" horiz-adv-x="1536" d="M109 545v901h376v-825q0 -68 5.5 -119t23.5 -103.5t48.5 -85.5t83.5 -54t126 -21q67 0 117 18.5t81 49t50 77t26 96.5t7 113v854h374v-873q0 -218 -67 -342q-147 -268 -594 -268q-301 0 -475 137q-62 49 -102.5 111t-56 129.5t-19.5 109t-4 95.5z" />
<glyph unicode="V" horiz-adv-x="1492" d="M0 1446h412l346 -995l356 995h379l-584 -1446h-334z" />
<glyph unicode="W" horiz-adv-x="2048" d="M0 1446h375l211 -965l430 965h47l410 -961l202 961h373l-348 -1446h-346l-322 752l-327 -752h-343z" />
<glyph unicode="X" horiz-adv-x="1409" d="M0 0l506 750l-467 696h420l250 -391l254 391h417l-471 -690l498 -756h-422l-283 446l-292 -446h-410z" />
<glyph unicode="Y" horiz-adv-x="1449" d="M0 1446h426l311 -567l314 567h399l-535 -916v-530h-380v530z" />
<glyph unicode="Z" horiz-adv-x="1366" d="M55 0v276l744 881h-688v289h1161v-285l-737 -872h831l-168 -289h-1143z" />
<glyph unicode="[" horiz-adv-x="681" d="M109 0v1446h534v-248h-248v-950h248v-248h-534z" />
<glyph unicode="\" horiz-adv-x="811" d="M0 1446h313l498 -1446h-317z" />
<glyph unicode="]" horiz-adv-x="681" d="M39 0v248h248v950h-248v248h534v-1446h-534z" />
<glyph unicode="^" horiz-adv-x="1492" d="M262 664l400 782h186l383 -782h-242l-237 501l-250 -501h-240z" />
<glyph unicode="_" horiz-adv-x="1024" d="M-20 -154h1064v-102h-1064v102z" />
<glyph unicode="`" horiz-adv-x="598" d="M55 1284v225l486 -184v-221z" />
<glyph unicode="a" horiz-adv-x="1067" d="M31 289q0 205 207 299q108 45 270 45q64 0 151 -12q-2 34 -7.5 59.5t-20 53.5t-38 46.5t-64 30.5t-95.5 12q-131 0 -319 -80l149 261q144 32 273 32q207 0 317 -86q41 -32 66.5 -70t35.5 -79.5t12.5 -67.5t2.5 -63v-422q0 -164 8 -248h-313q-4 45 -7 156l-137 -170 q-72 -11 -112 -11q-101 0 -176 27.5t-112.5 64.5t-59.5 86t-26.5 79t-4.5 57zM346 301q0 -56 41.5 -89.5t120.5 -33.5q66 0 151 35v223q-75 6 -96 6q-63 0 -104 -12q-45 -12 -72 -38.5t-34 -48t-7 -42.5z" />
<glyph unicode="b" d="M92 92v1354h334v-637l141 213q68 14 133 14q139 0 241 -69t152 -180t50 -248q0 -61 -12.5 -123t-38.5 -126.5t-71.5 -120t-106.5 -99.5t-150 -69.5t-195 -25.5q-223 0 -477 117zM426 254q69 -43 141 -43q66 0 114.5 30.5t73 79.5t35.5 98.5t11 100.5q0 48 -11 94 t-35.5 90.5t-70.5 71.5t-109 27q-77 0 -149 -43v-506z" />
<glyph unicode="c" horiz-adv-x="937" d="M51 504q0 105 36 200t104 170t176.5 119.5t242.5 44.5q155 0 289 -57v-274q-105 98 -233 98q-121 0 -196 -84.5t-75 -212.5q0 -82 32 -151t103.5 -114.5t171.5 -45.5q95 0 236 53l-133 -244q-136 -31 -219 -31q-124 0 -226.5 42.5t-169 115t-103 168.5t-36.5 203z" />
<glyph unicode="d" d="M51 494q0 151 58 274.5t165 195.5t242 72q140 0 254 -75v485h332v-1446h-332v205l-139 -205q-93 -25 -148 -25q-87 0 -159.5 29.5t-122 79.5t-84 117t-50.5 141t-16 152zM393 494q0 -136 64 -213q62 -74 164 -74q74 0 149 43v495q-69 54 -152 54q-60 0 -105.5 -27 t-70.5 -72.5t-37 -97t-12 -108.5z" />
<glyph unicode="e" horiz-adv-x="1150" d="M51 504q0 232 144 382t397 150q268 0 407 -164q42 -49 68.5 -105.5t36 -119t12 -99t2.5 -93.5h-715q0 -28 31 -96.5t84 -102.5t106.5 -47.5t131.5 -13.5q165 0 327 67l-145 -254q-138 -33 -287 -33q-129 0 -232.5 30t-171 80t-112.5 119t-64.5 143.5t-19.5 156.5z M397 633h402q-6 99 -58 151q-56 56 -137 56q-74 0 -131.5 -51t-75.5 -156z" />
<glyph unicode="f" horiz-adv-x="681" d="M-29 778l125 234h23v61q1 50 3.5 77.5t13.5 73.5t32 83q102 174 367 174q99 0 192 -25v-242q-62 27 -115 27q-113 0 -147 -94q-12 -35 -12 -135h221v-234h-221v-778h-334v778h-148z" />
<glyph unicode="g" d="M51 498q0 105 35.5 199.5t105 171t186 122t265.5 45.5q233 0 459 -100v-782q0 -109 -17 -183q-42 -156 -155 -254q-154 -137 -416 -137q-78 0 -193.5 17.5t-214.5 58.5v287q74 -57 174 -92t193 -35q158 0 236 90q43 49 54 111t11 176v65l-145 -207q-69 -12 -115 -12 q-208 0 -335.5 124.5t-127.5 334.5zM395 530q0 -122 60.5 -192t162.5 -70q71 0 156 41v459q-78 31 -137 31q-110 0 -176 -74t-66 -195z" />
<glyph unicode="h" d="M94 0v1446h334v-660l145 226q117 24 189 24q164 0 254 -88q29 -28 47.5 -60.5t26 -71.5t9.5 -63t3 -67v-686h-324v479q0 71 -0.5 99t-6 67t-17.5 64q-42 88 -146 88q-83 0 -180 -64v-733h-334z" />
<glyph unicode="i" horiz-adv-x="512" d="M86 1294q0 68 49.5 111t120.5 43q68 0 117 -43t49 -111q0 -70 -49 -111.5t-119 -41.5q-69 0 -118.5 42.5t-49.5 110.5zM90 0v1014h330v-1014h-330z" />
<glyph unicode="j" horiz-adv-x="512" d="M86 1294q0 68 49.5 111t120.5 43q69 0 118.5 -43t49.5 -111q0 -69 -49.5 -111t-120.5 -42q-69 0 -118.5 42.5t-49.5 110.5zM90 -418v1432h330v-1243z" />
<glyph unicode="k" horiz-adv-x="1150" d="M92 0v1446h336v-856l338 422h369l-357 -449l402 -563h-385l-367 524v-524h-336z" />
<glyph unicode="l" horiz-adv-x="512" d="M88 0v1446h334v-1446h-334z" />
<glyph unicode="m" horiz-adv-x="1878" d="M94 0v1014h332v-213l145 203q115 34 201 34q280 0 326 -243l151 211q109 32 205 32q172 0 258 -98q33 -36 49 -83.5t18.5 -79.5t2.5 -93v-684h-332v512q0 93 -4.5 136t-20.5 73q-42 76 -145 76q-79 0 -178 -60q2 -25 2 -123v-614h-332v557q0 126 -36 182t-134 56 q-80 0 -176 -54v-741h-332z" />
<glyph unicode="n" d="M94 0v1012h324v-230l162 224q89 30 190 30q156 0 244 -88q31 -31 50 -66t26.5 -76t9.5 -68.5t2 -69.5v-668h-326v530q0 65 -7 109.5t-26 81.5t-56 54.5t-93 17.5q-94 0 -176 -66v-727h-324z" />
<glyph unicode="o" d="M51 502q0 231 150.5 382.5t402.5 151.5q154 0 275 -59.5t192.5 -178.5t71.5 -282q0 -83 -18.5 -160t-61 -147t-104.5 -121.5t-155.5 -82t-207.5 -30.5q-141 0 -249 45.5t-171 122t-94 167.5t-31 192zM399 506q0 -58 11 -121q16 -83 64 -134.5t124 -51.5q41 0 73.5 15.5 t53 38t35.5 56t21.5 60.5t10.5 61.5t4.5 49.5t0.5 32q0 36 -3 69.5t-15 79t-32 78t-58 55.5t-89 23q-41 0 -74 -15t-53.5 -37t-35.5 -55t-22 -59.5t-11 -61t-4.5 -49.5t-0.5 -34z" />
<glyph unicode="p" d="M94 -428v1440h334v-203l137 203q79 24 142 24q201 0 318.5 -141.5t117.5 -374.5q0 -128 -38 -233t-102.5 -172t-148.5 -103.5t-178 -36.5q-130 0 -248 74v-477h-334zM428 270q73 -57 152 -57q101 0 161 83.5t60 219.5q0 128 -56 207q-63 84 -172 84q-74 0 -145 -41v-496z " />
<glyph unicode="q" d="M51 475q0 86 21 166.5t67 152.5t111 125.5t160 85t208 31.5q108 0 236.5 -29.5t247.5 -86.5v-1348h-332v631l-141 -209q-78 -19 -137 -19q-192 0 -316.5 138t-124.5 362zM393 502q0 -69 17 -127q23 -85 79 -126.5t127 -41.5q77 0 154 47v502q-73 43 -141 43 q-105 0 -170.5 -79.5t-65.5 -217.5z" />
<glyph unicode="r" horiz-adv-x="811" d="M94 0v1012h334v-205l141 205q77 26 179 26q36 0 63 -6v-325q-121 86 -227 86q-79 0 -156 -43v-750h-334z" />
<glyph unicode="s" horiz-adv-x="854" d="M59 713q0 57 22.5 111.5t67.5 103t125 78.5t183 30q154 0 309 -71v-248q-108 108 -244 108q-67 0 -98 -32.5t-31 -69.5q0 -18 7.5 -33t16 -24.5t27.5 -21t28 -16t32 -14.5l112 -43q85 -37 119 -69q88 -77 88 -201q0 -62 -24 -118t-71.5 -103.5t-129 -76t-186.5 -28.5 q-190 0 -346 74v254q161 -108 280 -108q68 0 102.5 33t34.5 75q0 25 -11.5 45t-33.5 34t-37 20.5t-39 15.5l-92 33q-24 10 -37.5 16.5t-43.5 22.5t-48.5 35t-39.5 46t-31.5 63t-10.5 79z" />
<glyph unicode="t" horiz-adv-x="724" d="M-35 778l123 234h27v182l323 100v-282h244v-234h-244v-329q-2 -28 0 -57t5 -55.5t14.5 -50t29.5 -40.5t48.5 -27t72.5 -10q66 0 144 24l-172 -237q-92 -19 -156 -19q-151 0 -231 80q-36 35 -54.5 84t-21 78.5t-2.5 75.5v483h-150z" />
<glyph unicode="u" d="M94 330v682h328v-527q0 -114 8 -149q12 -54 50.5 -85.5t101.5 -31.5q102 0 194 68v725h326v-1012h-326v229l-158 -223q-97 -31 -182 -31q-151 0 -243 84q-33 30 -54.5 64.5t-30 74.5t-11 65.5t-3.5 66.5z" />
<glyph unicode="v" horiz-adv-x="1110" d="M0 1012h360l203 -695l199 695h348l-375 -1012h-358z" />
<glyph unicode="w" horiz-adv-x="1622" d="M0 1012h346l119 -684l207 684h297l190 -684l135 684h328l-250 -1012h-366l-197 618l-191 -618h-368z" />
<glyph unicode="x" horiz-adv-x="1150" d="M0 0l371 532l-338 480h366l185 -271l184 271h348l-334 -475l371 -537h-377l-205 305l-204 -305h-367z" />
<glyph unicode="y" horiz-adv-x="1110" d="M0 1014h352l213 -703l213 703h332l-377 -994q-31 -80 -52 -125t-67 -110.5t-99.5 -100t-142.5 -61t-202 -26.5q-69 0 -150 14l82 231q45 -10 70 -10q61 0 116.5 42t88.5 136z" />
<glyph unicode="z" horiz-adv-x="1067" d="M70 0v236l501 536h-465v242h887v-242l-495 -530h559l-139 -242h-848z" />
<glyph unicode="{" horiz-adv-x="768" d="M47 627v207q108 6 146 64.5t43 211.5q1 41 2.5 62t8 57.5t21.5 66.5t39 56q57 66 141 81t271 15v-205q-69 -2 -107.5 -11.5t-66.5 -41.5q-16 -18 -24.5 -46.5t-10 -44.5t-2.5 -57q-1 -34 -2.5 -54t-6 -54t-12 -55t-22.5 -48.5t-35 -45t-51 -33t-70 -23.5v-10 q32 -6 58.5 -16.5t45.5 -26t33 -31t23.5 -38t15.5 -38.5t10 -42.5t5.5 -40.5t3.5 -40q0 -35 4 -75q3 -33 10.5 -58.5t16.5 -42.5t26 -29t30.5 -18.5t39 -10.5t41.5 -5t47 -2v-205q-67 0 -98.5 0.5t-81 3t-75 8.5t-58 16.5t-55.5 27t-44 40.5q-32 35 -49 85.5t-20.5 86.5 t-4.5 94q-2 83 -8 115q-8 40 -24 69t-32 43.5t-42.5 23.5t-40 10.5t-39.5 3.5z" />
<glyph unicode="|" horiz-adv-x="468" d="M129 -512v2048h211v-2048h-211z" />
<glyph unicode="}" horiz-adv-x="768" d="M47 0v205q70 2 109.5 11.5t66.5 41.5q21 25 28 60.5t11 99.5q2 36 4 54.5t7.5 52t13 53t22 46t34 42.5t49.5 31t67 22v10q-65 11 -107 45q-82 62 -88 195q-1 8 -3 59.5t-3 61.5q-2 30 -10 53.5t-17.5 39.5t-27.5 27t-32 17t-39 9.5t-40.5 4.5t-44.5 2v205q68 0 99.5 -0.5 t81 -3t75 -8.5t58.5 -16.5t56 -27t44 -40.5q24 -26 39 -56t21.5 -66.5t8 -57.5t2.5 -62q5 -153 43 -211.5t146 -64.5v-207q-71 -6 -101 -23q-33 -18 -53 -53q-14 -24 -21 -58t-8.5 -57.5t-2.5 -73.5q-2 -41 -3 -55.5t-5.5 -52.5t-11.5 -59t-20.5 -49t-33.5 -50 q-21 -24 -44 -40.5t-56 -27t-59 -16.5t-75 -8.5t-81 -3t-99 -0.5z" />
<glyph unicode="~" horiz-adv-x="1492" d="M231 604q16 23 26.5 37.5t40.5 45t59.5 49.5t75.5 34.5t95 15.5q52 0 98 -14.5t122 -50.5l69 -33q103 -43 150 -43q58 0 104.5 34t95.5 93l95 -182q-67 -68 -86 -82q-108 -84 -215 -84q-49 0 -93 15t-118 50l-60 29q-99 47 -158 47q-25 0 -45 -5.5t-35 -12.5t-36.5 -28.5 t-37 -38.5t-48.5 -56z" />
<glyph unicode="&#xa1;" horiz-adv-x="598" d="M113 1292q0 73 49 122.5t123 49.5q76 0 125 -51t49 -121q0 -69 -48 -121.5t-124 -52.5q-79 0 -126.5 51.5t-47.5 122.5zM117 0l28 905l277 133l33 -1038h-338z" />
<glyph unicode="&#xa2;" horiz-adv-x="980" d="M51 500q0 137 58.5 249.5t162.5 182.5q76 50 181 78v254h231v-234q151 -9 252 -55v-273q-110 97 -252 97q-134 0 -211.5 -85.5t-77.5 -209.5q0 -79 28.5 -140t77 -96.5t105 -53t119.5 -17.5q113 0 256 53l-143 -246q-59 -15 -154 -22v-244h-231v258q-97 25 -164 65 q-45 28 -84.5 67t-75.5 92.5t-57 126t-21 153.5z" />
<glyph unicode="&#xa3;" horiz-adv-x="1280" d="M0 569v248h281v62q1 42 2.5 68t10.5 79t25 92.5t48.5 88.5t78.5 89q151 134 394 134q174 0 315 -58v-305q-112 94 -256 94q-115 0 -192 -67q-24 -22 -40 -47t-24.5 -46.5t-12.5 -57t-4.5 -58t-0.5 -68.5h346v-248h-346v-305h690l-154 -264h-1040l160 264v305h-281z" />
<glyph unicode="&#xa4;" horiz-adv-x="1366" d="M51 221l162 160q-96 140 -96 313q0 176 96 316l-158 157l156 158l158 -158q41 26 72 42.5t100 35.5t143 19q76 0 144.5 -19t99 -36t67.5 -42l160 158l160 -158l-162 -157q96 -148 96 -314q0 -61 -9.5 -113t-27.5 -93t-30 -62.5t-31 -48.5l162 -162l-160 -158l-160 162 q-38 -25 -68.5 -41t-98.5 -34.5t-142 -18.5q-167 0 -315 96l-160 -160zM324 694q0 -159 107.5 -260.5t254.5 -101.5q149 0 251.5 103.5t102.5 262.5t-107.5 260t-250.5 101q-92 0 -172.5 -42.5t-133 -127.5t-52.5 -195z" />
<glyph unicode="&#xa5;" horiz-adv-x="1449" d="M20 1399h426l291 -531l293 531h400l-285 -486h172v-247h-316l-86 -148v-39h400l2 -248h-402v-231h-380v231h-404v248h404v39l-86 148h-318v247h174z" />
<glyph unicode="&#xa6;" horiz-adv-x="468" d="M129 -358v716h211v-716h-211zM129 666v716h211v-716h-211z" />
<glyph unicode="&#xa7;" horiz-adv-x="1024" d="M43 504q0 110 69.5 209.5t178.5 146.5q-26 24 -43.5 43t-42 54t-38 79t-13.5 94q0 51 16.5 101t51.5 96t85 80.5t122.5 55t158.5 20.5q171 0 330 -72v-315q-115 125 -252 125q-71 0 -109.5 -36.5t-38.5 -82.5q0 -26 10.5 -48.5t30.5 -40.5t35 -28t39 -24l110 -58 q107 -57 174.5 -144.5t67.5 -203.5q0 -143 -100 -254q-13 -15 -26 -27t-30 -24.5t-24.5 -17.5t-28.5 -18t-22 -13q23 -24 37.5 -42t36 -51.5t33 -74.5t11.5 -86q0 -50 -16 -101.5t-51 -101t-85 -88.5t-124.5 -62.5t-163.5 -23.5q-181 0 -334 72v315q28 -24 48 -39t55 -36.5 t74.5 -32.5t80.5 -11q75 0 114.5 40t39.5 89q0 28 -10.5 51.5t-31.5 41.5t-37 28t-44 25l-68 34q-134 64 -205 146t-71 211zM360 551q0 -115 172 -207q132 75 132 184q0 34 -14 65t-32.5 51.5t-45 39t-43 27t-33.5 16.5q-136 -60 -136 -176z" />
<glyph unicode="&#xa8;" horiz-adv-x="598" d="M-100 1294q0 67 49.5 110.5t118.5 43.5t118.5 -43t49.5 -111q0 -69 -49.5 -111t-118.5 -42t-118.5 42.5t-49.5 110.5zM362 1294q0 68 50.5 111t117.5 43q69 0 118.5 -43.5t49.5 -110.5q0 -68 -49.5 -110.5t-118.5 -42.5t-118.5 43t-49.5 110z" />
<glyph unicode="&#xa9;" horiz-adv-x="1705" d="M125 723q0 154 58.5 290.5t157.5 232t232 151t279 55.5q155 0 292 -58.5t232.5 -157t151 -232t55.5 -279.5q0 -150 -56.5 -285t-153.5 -233t-233 -155.5t-288 -57.5q-142 0 -274 54t-232.5 148t-160.5 231.5t-60 295.5zM190 723q0 -183 89 -336t241 -240.5t332 -87.5 q139 0 263.5 52.5t212.5 142t139 212.5t51 259q0 179 -85.5 330.5t-238 241t-338.5 89.5q-138 0 -262 -52.5t-212 -141.5t-140 -211.5t-52 -257.5zM371 723q0 140 60.5 254t175 181t261.5 67q79 0 146.5 -18t118 -51.5t75 -54.5t56.5 -54l-148 -140q-22 23 -39 38t-49 36.5 t-72.5 33t-87.5 11.5q-133 0 -213 -86t-80 -213q0 -134 83 -216.5t212 -82.5q49 0 90.5 11.5t73 32.5t47 34.5t35.5 34.5l148 -133q-162 -179 -396 -179q-149 0 -263 65.5t-174 177t-60 251.5z" />
<glyph unicode="&#xaa;" horiz-adv-x="724" d="M37 979q0 43 14 79t37 58.5t42.5 36t39.5 21.5q70 28 174 28q42 0 96 -6q-3 63 -36.5 94t-106.5 31q-38 0 -78 -9t-64 -18t-69 -28l102 174q64 22 177 22q131 0 204 -55q34 -27 52 -64.5t21 -61t3 -56.5v-262q0 -118 4 -172h-205q-4 23 -4 96l-84 -105q-28 -8 -69 -8 q-60 0 -109 14q-71 23 -106 75t-35 116zM244 987q0 -36 26.5 -57t73.5 -21q36 0 96 21v141q-29 4 -57 4q-139 0 -139 -88z" />
<glyph unicode="&#xab;" horiz-adv-x="980" d="M10 545l221 319h287l-223 -319l223 -324h-285zM463 545l223 319h285l-223 -319l223 -324h-285z" />
<glyph unicode="&#xac;" horiz-adv-x="1366" d="M0 496v211h1366v-707h-211v496h-1155z" />
<glyph unicode="&#xad;" horiz-adv-x="768" d="M4 428l154 225h606l-154 -225h-606z" />
<glyph unicode="&#xae;" horiz-adv-x="1705" d="M125 723q0 154 58.5 290.5t157.5 232t232 151t279 55.5q155 0 292 -58.5t232.5 -157t151 -232t55.5 -279.5q0 -150 -56.5 -285t-153.5 -233t-233 -155.5t-288 -57.5q-141 0 -273 54t-232.5 148t-161 231.5t-60.5 295.5zM190 723q0 -183 89 -336t241.5 -240.5t333.5 -87.5 q184 0 337 89t240 242t87 335q0 178 -85.5 329.5t-238.5 241.5t-338 90q-138 0 -262 -52.5t-212 -141.5t-140 -211.5t-52 -257.5zM528 264v930h367q326 -8 326 -244q0 -46 -16 -84t-36 -60t-49 -40t-44.5 -24t-31.5 -11q35 -19 52 -32t36.5 -51t28.5 -101 q12 -74 18.5 -109.5t21.5 -84.5t36 -89h-223q0 1 -6 15.5t-10.5 26.5t-11 36.5t-11.5 52.5q-7 70 -21 140q-6 34 -14 56.5t-23.5 37.5t-28 22.5t-43 11.5t-52 4.5t-70.5 0.5v-404h-195zM723 823h117q35 0 59 2t50 8.5t41.5 19t25.5 34t10 51.5q0 63 -41.5 84.5t-132.5 21.5 h-129v-221z" />
<glyph unicode="&#xaf;" horiz-adv-x="598" d="M0 1194v209h598v-209h-598z" />
<glyph unicode="&#xb0;" horiz-adv-x="724" d="M10 1194q0 146 103 249t249 103t249.5 -103t103.5 -249q0 -148 -103.5 -251t-249.5 -103t-249 103t-103 251zM215 1192q0 -62 43 -105t104 -43q60 0 103 43.5t43 104.5t-43 104t-103 43q-62 0 -104.5 -42.5t-42.5 -104.5z" />
<glyph unicode="&#xb1;" horiz-adv-x="1366" d="M86 0v211h1194v-211h-1194zM86 766v211h494v461h211v-461h489v-211h-489v-463h-211v463h-494z" />
<glyph unicode="&#xb2;" horiz-adv-x="854" d="M113 494v174l258 282q36 42 50.5 60.5t27 46t12.5 55.5q0 43 -28.5 79t-94.5 36q-43 0 -85 -20t-65.5 -40.5t-54.5 -52.5v227q130 76 268 76q149 0 229.5 -81t80.5 -195q0 -52 -20 -102t-39.5 -76.5t-55.5 -67.5l-197 -223h389l-126 -178h-549z" />
<glyph unicode="&#xb3;" horiz-adv-x="854" d="M127 537v213q109 -88 221 -88q64 0 98.5 32.5t34.5 77.5q0 117 -186 117q-1 0 -35 -1t-39 -1l111 160q26 0 53 8q26 9 42.5 32t16.5 52q0 37 -27 63.5t-79 26.5q-97 0 -193 -99v216q123 71 254 71q129 0 207 -67.5t78 -169.5q0 -131 -135 -197q48 -13 80 -31 q12 -7 25 -17.5t34 -33.5t34 -60t13 -81q0 -122 -96 -202.5t-246 -80.5q-127 0 -266 60z" />
<glyph unicode="&#xb4;" horiz-adv-x="598" d="M59 1104v221l480 184v-225z" />
<glyph unicode="&#xb5;" d="M92 -428v1440h326v-572q0 -110 36 -165.5t128 -55.5q102 0 194 68v725h326v-1012h-326v229l-160 -223q-44 -22 -88 -22q-66 0 -100 47q-2 2 -14 20v-479h-322z" />
<glyph unicode="&#xb6;" horiz-adv-x="1366" d="M174 1020q0 199 131 319q41 36 86 59t93.5 32.5t76.5 12t72 3.5h489v-135h-71v-1653h-146v1653h-266v-1653h-145v969q-108 21 -177 73q-70 55 -106.5 140t-36.5 180z" />
<glyph unicode="&#xb7;" horiz-adv-x="512" d="M84 543q0 68 47.5 120t126.5 52q76 0 124 -51.5t48 -122.5q0 -72 -49.5 -122t-122.5 -50q-76 0 -125 51.5t-49 122.5z" />
<glyph unicode="&#xb8;" horiz-adv-x="598" d="M72 -418l186 338h268l-243 -338h-211z" />
<glyph unicode="&#xb9;" horiz-adv-x="854" d="M197 1053v190l376 172v-921h-235v626z" />
<glyph unicode="&#xba;" horiz-adv-x="768" d="M29 1114q0 152 98 250t260 98q154 0 252 -91t98 -247q0 -70 -20.5 -131t-62 -111t-112 -79t-161.5 -29q-90 0 -160 29t-110.5 78.5t-61 108.5t-20.5 124zM258 1118q0 -85 30 -139.5t97 -54.5q30 0 52.5 12t35.5 33.5t21.5 42t11.5 47t3.5 38t0.5 25.5q0 30 -4 57t-15 61 t-38.5 54.5t-67.5 20.5q-36 0 -62 -18t-38 -40.5t-18.5 -55t-7.5 -48.5t-1 -35z" />
<glyph unicode="&#xbb;" horiz-adv-x="980" d="M10 221l223 320l-223 323h285l223 -323l-223 -320h-285zM463 221l223 320l-223 323h287l221 -323l-221 -320h-287z" />
<glyph unicode="&#xbc;" horiz-adv-x="1961" d="M197 1055v190l376 170v-919h-235v624zM516 0l688 1399h217l-690 -1399h-215zM1145 201v98l358 606h285v-530h158l-121 -174h-37v-201h-225v201h-418zM1401 375h162v299z" />
<glyph unicode="&#xbd;" horiz-adv-x="1961" d="M197 1055v190l376 172v-921h-235v624zM473 0l688 1399h217l-690 -1399h-215zM1223 0v174l256 283q37 43 50.5 60.5t26.5 45t13 55.5q0 43 -28.5 79t-92.5 36q-43 0 -86 -20t-65 -39t-56 -53v227q130 76 268 76q149 0 229.5 -81.5t80.5 -195.5q0 -52 -20 -102t-39.5 -76.5 t-55.5 -67.5l-197 -223h389l-127 -178h-546z" />
<glyph unicode="&#xbe;" horiz-adv-x="1961" d="M127 537v213q109 -88 221 -88q64 0 98.5 32.5t34.5 77.5q0 117 -186 117q-1 0 -35 -1t-39 -1l111 160q26 0 53 8q26 9 42.5 32t16.5 52q0 37 -27 63.5t-79 26.5q-97 0 -193 -99v216q123 71 254 71q129 0 207 -67.5t78 -169.5q0 -46 -14.5 -82.5t-40.5 -59.5t-42 -33.5 t-38 -21.5q48 -13 80 -31q12 -7 25 -17.5t34 -33.5t34 -60t13 -81q0 -122 -96 -202.5t-246 -80.5q-127 0 -266 60zM553 0l688 1399h217l-690 -1399h-215zM1145 201v98l358 606h285v-530h158l-121 -174h-37v-201h-225v201h-418zM1401 375h162v299z" />
<glyph unicode="&#xbf;" horiz-adv-x="894" d="M10 354q0 135 82 232q29 34 63.5 58.5t71 37t59 18t52.5 9.5v188l311 143v-481q-2 0 -23.5 -1.5t-26.5 -2t-24.5 -2t-27.5 -3t-25 -4.5t-27.5 -6t-24 -7.5t-24.5 -10.5q-90 -47 -90 -135q0 -59 47 -103t138 -44q62 0 124.5 21t95.5 41.5t75 51.5v-299q-175 -86 -367 -86 q-116 0 -207 34t-144 90t-80.5 122.5t-27.5 138.5zM322 1292q0 74 49 123t123 49q77 0 125.5 -51.5t48.5 -120.5q0 -70 -48 -122t-126 -52q-75 0 -123.5 50.5t-48.5 123.5z" />
<glyph unicode="&#xc0;" horiz-adv-x="1492" d="M0 0l569 1446h367l557 -1446h-399l-99 289h-516l-104 -289h-375zM455 1712v225l485 -184v-221zM557 512h363l-154 457q-17 57 -21 80q-6 -18 -10 -32.5t-6.5 -22t-5.5 -17.5z" />
<glyph unicode="&#xc1;" horiz-adv-x="1492" d="M0 0l569 1446h367l557 -1446h-399l-99 289h-516l-104 -289h-375zM557 512h363l-154 457q-17 57 -21 80q-6 -18 -10 -32.5t-6.5 -22t-5.5 -17.5zM559 1532v221l479 184v-225z" />
<glyph unicode="&#xc2;" horiz-adv-x="1492" d="M0 0l569 1446h367l557 -1446h-399l-99 289h-516l-104 -289h-375zM487 1532v227l258 189l267 -189v-227l-267 184zM557 512h363l-154 457q-17 57 -21 80q-6 -18 -10 -32.5t-6.5 -22t-5.5 -17.5z" />
<glyph unicode="&#xc3;" horiz-adv-x="1492" d="M0 0l569 1446h367l557 -1446h-399l-99 289h-516l-104 -289h-375zM453 1583v195q15 17 25 26.5t30.5 24t48 22t61.5 7.5q53 0 138 -35q86 -33 129 -33q40 0 73 12.5t47.5 24t34.5 31.5v-205q-19 -20 -31.5 -31t-46.5 -24t-77 -13q-40 0 -72.5 9t-99.5 36q-65 21 -103 21 q-84 0 -157 -68zM557 512h363l-154 457q-17 57 -21 80q-6 -18 -10 -32.5t-6.5 -22t-5.5 -17.5z" />
<glyph unicode="&#xc4;" horiz-adv-x="1492" d="M0 0l569 1446h367l557 -1446h-399l-99 289h-516l-104 -289h-375zM350 1722q0 67 49.5 110.5t118.5 43.5t118.5 -43t49.5 -111q0 -69 -49.5 -111t-118.5 -42t-118.5 42.5t-49.5 110.5zM557 512h363l-154 457q-17 57 -21 80q-6 -18 -10 -32.5t-6.5 -22t-5.5 -17.5z M813 1722q0 68 50.5 111t117.5 43q69 0 118.5 -43.5t49.5 -110.5q0 -68 -49.5 -110.5t-118.5 -42.5t-118.5 43t-49.5 110z" />
<glyph unicode="&#xc5;" horiz-adv-x="1492" d="M0 0l569 1446h367l557 -1446h-399l-99 289h-516l-104 -289h-375zM539 1747q0 88 57.5 149.5t151.5 61.5q92 0 151 -60t59 -149q0 -88 -57 -150.5t-151 -62.5q-96 0 -153.5 62.5t-57.5 148.5zM557 512h363l-154 457q-17 57 -21 80q-6 -18 -10 -32.5t-6.5 -22t-5.5 -17.5z M643 1745q0 -45 30 -75t75 -30t75.5 30t30.5 77q0 45 -28.5 74.5t-75.5 29.5q-49 0 -78 -29.5t-29 -76.5z" />
<glyph unicode="&#xc6;" horiz-adv-x="2134" d="M0 0l883 1446h1140v-283h-561v-276h482v-281h-482v-317h674l-168 -289h-870v340h-494l-201 -340h-403zM758 604h340v580z" />
<glyph unicode="&#xc7;" horiz-adv-x="1366" d="M63 707q0 124 34 237.5t104 212t169 171t238.5 114t304.5 41.5q188 0 387 -60v-321q-167 108 -342 108q-116 0 -212 -39t-158.5 -105.5t-96.5 -155t-34 -187.5q0 -105 36.5 -195.5t103 -157.5t168 -105t224.5 -38q180 0 377 78l-176 -303q-148 -39 -303 -39 q-190 0 -346.5 57.5t-260.5 158t-160.5 236t-56.5 292.5zM514 -469l201 379h291l-256 -379h-236z" />
<glyph unicode="&#xc8;" horiz-adv-x="1150" d="M109 0v1446h938v-285h-562v-276h482v-283h-482v-315h670l-164 -287h-882zM283 1712v225l485 -184v-221z" />
<glyph unicode="&#xc9;" horiz-adv-x="1150" d="M109 0v1446h938v-285h-562v-276h482v-283h-482v-315h670l-164 -287h-882zM387 1532v221l479 184v-225z" />
<glyph unicode="&#xca;" horiz-adv-x="1150" d="M109 0v1446h938v-285h-562v-276h482v-283h-482v-315h670l-164 -287h-882zM315 1532v227l258 189l267 -189v-227l-267 184z" />
<glyph unicode="&#xcb;" horiz-adv-x="1150" d="M109 0v1446h938v-285h-562v-276h482v-283h-482v-315h670l-164 -287h-882zM176 1722q0 67 49.5 110.5t118.5 43.5t118.5 -43t49.5 -111q0 -69 -49.5 -111t-118.5 -42t-118.5 42.5t-49.5 110.5zM639 1722q0 68 50.5 111t117.5 43q69 0 118.5 -43.5t49.5 -110.5 q0 -68 -49.5 -110.5t-118.5 -42.5t-118.5 43t-49.5 110z" />
<glyph unicode="&#xcc;" horiz-adv-x="598" d="M6 1712v225l486 -184v-221zM109 0v1446h378v-1446h-378z" />
<glyph unicode="&#xcd;" horiz-adv-x="598" d="M109 0v1446h378v-1446h-378zM111 1532v221l479 184v-225z" />
<glyph unicode="&#xce;" horiz-adv-x="598" d="M39 1532v227l258 189l266 -189v-227l-266 184zM109 0v1446h378v-1446h-378z" />
<glyph unicode="&#xcf;" horiz-adv-x="598" d="M-100 1722q0 67 49.5 110.5t118.5 43.5t118.5 -43t49.5 -111q0 -69 -49.5 -111t-118.5 -42t-118.5 42.5t-49.5 110.5zM109 0v1446h378v-1446h-378zM362 1722q0 68 50.5 111t117.5 43q69 0 118.5 -43.5t49.5 -110.5q0 -68 -49.5 -110.5t-118.5 -42.5t-118.5 43t-49.5 110z " />
<glyph unicode="&#xd0;" horiz-adv-x="1536" d="M4 647v217h105v582h630q154 0 287 -47t233 -135t157 -224t57 -305q0 -155 -53 -292t-150 -236q-56 -57 -123.5 -98t-124 -61.5t-124.5 -32t-109 -13.5t-95 -2h-585v647h-105zM483 279h107q52 0 83.5 1.5t79 11t87.5 27.5q66 30 113.5 78t72.5 104.5t36 111.5t11 112 q0 142 -59.5 243t-157.5 149t-225 48h-148v-301h320v-217h-320v-368z" />
<glyph unicode="&#xd1;" horiz-adv-x="1622" d="M109 0v1446h331l707 -784v784h364v-1446h-243l-793 879v-879h-366zM516 1583v195q20 23 34.5 36t51 28.5t80.5 15.5q52 0 137 -35q86 -33 129 -33q40 0 73 12.5t48 24t35 31.5v-205q-18 -20 -31 -31t-47.5 -24t-77.5 -13q-40 0 -72.5 9t-99.5 36q-65 21 -102 21 q-85 0 -158 -68z" />
<glyph unicode="&#xd2;" horiz-adv-x="1705" d="M63 723q0 159 55 297.5t155.5 241.5t251 162t331.5 59q182 0 333 -60.5t249.5 -163.5t152.5 -239t54 -289q0 -120 -32.5 -233t-98 -210t-157.5 -169.5t-219 -114t-274 -41.5q-185 0 -337 57.5t-253 159.5t-156 241t-55 302zM463 725q0 -205 106.5 -340t286.5 -135 q96 0 173 42t122.5 111t69.5 150t24 166q0 213 -105.5 349t-283.5 136q-176 0 -284.5 -135.5t-108.5 -343.5zM561 1712v225l486 -184v-221z" />
<glyph unicode="&#xd3;" horiz-adv-x="1705" d="M63 723q0 159 55 297.5t155.5 241.5t251 162t331.5 59q182 0 333 -60.5t249.5 -163.5t152.5 -239t54 -289q0 -120 -32.5 -233t-98 -210t-157.5 -169.5t-219 -114t-274 -41.5q-185 0 -337 57.5t-253 159.5t-156 241t-55 302zM463 725q0 -205 106.5 -340t286.5 -135 q96 0 173 42t122.5 111t69.5 150t24 166q0 213 -105.5 349t-283.5 136q-176 0 -284.5 -135.5t-108.5 -343.5zM666 1532v221l479 184v-225z" />
<glyph unicode="&#xd4;" horiz-adv-x="1705" d="M63 723q0 159 55 297.5t155.5 241.5t251 162t331.5 59q182 0 333 -60.5t249.5 -163.5t152.5 -239t54 -289q0 -120 -32.5 -233t-98 -210t-157.5 -169.5t-219 -114t-274 -41.5q-185 0 -337 57.5t-253 159.5t-156 241t-55 302zM463 725q0 -205 106.5 -340t286.5 -135 q96 0 173 42t122.5 111t69.5 150t24 166q0 213 -105.5 349t-283.5 136q-176 0 -284.5 -135.5t-108.5 -343.5zM594 1532v227l258 189l266 -189v-227l-266 184z" />
<glyph unicode="&#xd5;" horiz-adv-x="1705" d="M63 723q0 159 55 297.5t155.5 241.5t251 162t331.5 59q182 0 333 -60.5t249.5 -163.5t152.5 -239t54 -289q0 -120 -32.5 -233t-98 -210t-157.5 -169.5t-219 -114t-274 -41.5q-185 0 -337 57.5t-253 159.5t-156 241t-55 302zM463 725q0 -205 106.5 -340t286.5 -135 q96 0 173 42t122.5 111t69.5 150t24 166q0 213 -105.5 349t-283.5 136q-176 0 -284.5 -135.5t-108.5 -343.5zM559 1583v195q20 23 34.5 36t51 28.5t80.5 15.5q52 0 137 -35q86 -33 129 -33q40 0 73 12.5t48 24t35 31.5v-205q-18 -20 -31 -31t-47.5 -24t-77.5 -13 q-40 0 -72.5 9t-99.5 36q-65 21 -102 21q-85 0 -158 -68z" />
<glyph unicode="&#xd6;" horiz-adv-x="1705" d="M63 723q0 159 55 297.5t155.5 241.5t251 162t331.5 59q182 0 333 -60.5t249.5 -163.5t152.5 -239t54 -289q0 -120 -32.5 -233t-98 -210t-157.5 -169.5t-219 -114t-274 -41.5q-185 0 -337 57.5t-253 159.5t-156 241t-55 302zM463 725q0 -205 106.5 -340t286.5 -135 q96 0 173 42t122.5 111t69.5 150t24 166q0 213 -105.5 349t-283.5 136q-176 0 -284.5 -135.5t-108.5 -343.5zM467 1722q0 67 49.5 110.5t118.5 43.5t118.5 -43t49.5 -111q0 -69 -49.5 -111t-118.5 -42t-118.5 42.5t-49.5 110.5zM930 1722q0 68 50.5 111t117.5 43 q69 0 118.5 -43.5t49.5 -110.5q0 -68 -49.5 -110.5t-118.5 -42.5t-118.5 43t-49.5 110z" />
<glyph unicode="&#xd7;" horiz-adv-x="1366" d="M139 205l391 393l-391 393l152 152l391 -393l393 393l152 -152l-393 -393l393 -393l-152 -152l-393 393l-391 -393z" />
<glyph unicode="&#xd8;" horiz-adv-x="1705" d="M-2 61l213 203q-148 203 -148 455q0 125 34.5 239.5t102.5 210t163 166t222.5 109.5t274.5 39q110 0 211 -23q150 -33 272 -125l218 209l149 -162l-211 -200q55 -69 82 -135q64 -141 64 -314q0 -156 -55 -296t-154 -245t-248.5 -167t-327.5 -62q-110 0 -211 23 q-155 33 -282 125l-222 -213zM457 743q0 -99 39 -208l612 579q-113 94 -250 94q-175 0 -288 -135.5t-113 -329.5zM608 338q27 -24 49.5 -40t78.5 -35t120 -19q98 0 177 43t126 112.5t71.5 150.5t24.5 165q0 100 -36 200z" />
<glyph unicode="&#xd9;" horiz-adv-x="1536" d="M109 545v901h376v-825q0 -68 5.5 -119t23.5 -103.5t48.5 -85.5t83.5 -54t126 -21q67 0 117 18.5t81 49t50 77t26 96.5t7 113v854h374v-873q0 -218 -67 -342q-147 -268 -594 -268q-301 0 -475 137q-62 49 -102.5 111t-56 129.5t-19.5 109t-4 95.5zM475 1712v225l486 -184 v-221z" />
<glyph unicode="&#xda;" horiz-adv-x="1536" d="M109 545v901h376v-825q0 -68 5.5 -119t23.5 -103.5t48.5 -85.5t83.5 -54t126 -21q67 0 117 18.5t81 49t50 77t26 96.5t7 113v854h374v-873q0 -218 -67 -342q-147 -268 -594 -268q-301 0 -475 137q-62 49 -102.5 111t-56 129.5t-19.5 109t-4 95.5zM580 1532v221l479 184 v-225z" />
<glyph unicode="&#xdb;" horiz-adv-x="1536" d="M109 545v901h376v-825q0 -68 5.5 -119t23.5 -103.5t48.5 -85.5t83.5 -54t126 -21q67 0 117 18.5t81 49t50 77t26 96.5t7 113v854h374v-873q0 -218 -67 -342q-147 -268 -594 -268q-301 0 -475 137q-62 49 -102.5 111t-56 129.5t-19.5 109t-4 95.5zM508 1532v227l258 189 l266 -189v-227l-266 184z" />
<glyph unicode="&#xdc;" horiz-adv-x="1536" d="M109 545v901h376v-825q0 -68 5.5 -119t23.5 -103.5t48.5 -85.5t83.5 -54t126 -21q67 0 117 18.5t81 49t50 77t26 96.5t7 113v854h374v-873q0 -218 -67 -342q-147 -268 -594 -268q-301 0 -475 137q-62 49 -102.5 111t-56 129.5t-19.5 109t-4 95.5zM369 1722 q0 67 49.5 110.5t118.5 43.5t118.5 -43t49.5 -111q0 -69 -49.5 -111t-118.5 -42t-118.5 42.5t-49.5 110.5zM831 1722q0 68 50.5 111t117.5 43q69 0 118.5 -43.5t49.5 -110.5q0 -68 -49.5 -110.5t-118.5 -42.5t-118.5 43t-49.5 110z" />
<glyph unicode="&#xdd;" horiz-adv-x="1449" d="M0 1446h426l311 -567l314 567h399l-535 -916v-530h-380v530zM537 1532v221l479 184v-225z" />
<glyph unicode="&#xde;" horiz-adv-x="1280" d="M109 0v1446h376v-264h201q58 0 98 -2.5t98.5 -12.5t111 -34.5t98.5 -63.5q64 -56 104.5 -137t40.5 -182q0 -132 -72 -238q-33 -47 -75.5 -83t-89.5 -57t-90 -35t-92.5 -19.5t-79 -7t-66.5 -1.5h-187v-309h-376zM485 342l150 213q107 0 164 49q59 52 59 131 q0 65 -33 106.5t-78 56.5t-100 15h-162v-571z" />
<glyph unicode="&#xdf;" horiz-adv-x="1236" d="M92 0v874q3 181 19 250q20 81 63.5 144.5t97.5 102.5t120.5 64.5t128.5 35.5t126 10q111 0 200 -29.5t143.5 -80t83 -113t28.5 -132.5q0 -76 -29 -135.5t-74 -97.5q-47 -42 -133 -76q162 -29 246 -141q74 -101 74 -252q0 -85 -26 -163t-76.5 -143t-136.5 -104t-195 -39 q-94 0 -217 39v258q65 -45 131 -45q84 0 134 59.5t50 145.5q0 108 -80.5 183t-222.5 75q-9 0 -27.5 -1t-27.5 -1l167 238q62 17 89.5 60.5t27.5 92.5q0 76 -46.5 122t-117.5 46q-88 0 -139 -69q-22 -31 -33.5 -76.5t-13.5 -82t-2 -97.5v-922h-332z" />
<glyph unicode="&#xe0;" horiz-adv-x="1067" d="M31 289q0 205 207 299q108 45 270 45q64 0 151 -12q-2 34 -7.5 59.5t-20 53.5t-38 46.5t-64 30.5t-95.5 12q-131 0 -319 -80l149 261q144 32 273 32q207 0 317 -86q41 -32 66.5 -70t35.5 -79.5t12.5 -67.5t2.5 -63v-422q0 -164 8 -248h-313q-4 45 -7 156l-137 -170 q-72 -11 -112 -11q-101 0 -176 27.5t-112.5 64.5t-59.5 86t-26.5 79t-4.5 57zM225 1284v225l486 -184v-221zM346 301q0 -56 41.5 -89.5t120.5 -33.5q66 0 151 35v223q-75 6 -96 6q-63 0 -104 -12q-45 -12 -72 -38.5t-34 -48t-7 -42.5z" />
<glyph unicode="&#xe1;" horiz-adv-x="1067" d="M31 289q0 205 207 299q108 45 270 45q64 0 151 -12q-2 34 -7.5 59.5t-20 53.5t-38 46.5t-64 30.5t-95.5 12q-131 0 -319 -80l149 261q144 32 273 32q207 0 317 -86q41 -32 66.5 -70t35.5 -79.5t12.5 -67.5t2.5 -63v-422q0 -164 8 -248h-313q-4 45 -7 156l-137 -170 q-72 -11 -112 -11q-101 0 -176 27.5t-112.5 64.5t-59.5 86t-26.5 79t-4.5 57zM346 301q0 -56 41.5 -89.5t120.5 -33.5q66 0 151 35v223q-75 6 -96 6q-63 0 -104 -12q-45 -12 -72 -38.5t-34 -48t-7 -42.5zM362 1104v221l480 184v-225z" />
<glyph unicode="&#xe2;" horiz-adv-x="1067" d="M31 289q0 205 207 299q108 45 270 45q64 0 151 -12q-2 34 -7.5 59.5t-20 53.5t-38 46.5t-64 30.5t-95.5 12q-131 0 -319 -80l149 261q144 32 273 32q207 0 317 -86q41 -32 66.5 -70t35.5 -79.5t12.5 -67.5t2.5 -63v-422q0 -164 8 -248h-313q-4 45 -7 156l-137 -170 q-72 -11 -112 -11q-101 0 -176 27.5t-112.5 64.5t-59.5 86t-26.5 79t-4.5 57zM274 1104v227l258 189l267 -189v-227l-267 184zM346 301q0 -56 41.5 -89.5t120.5 -33.5q66 0 151 35v223q-75 6 -96 6q-63 0 -104 -12q-45 -12 -72 -38.5t-34 -48t-7 -42.5z" />
<glyph unicode="&#xe3;" horiz-adv-x="1067" d="M31 289q0 205 207 299q108 45 270 45q64 0 151 -12q-2 34 -7.5 59.5t-20 53.5t-38 46.5t-64 30.5t-95.5 12q-131 0 -319 -80l149 261q144 32 273 32q207 0 317 -86q41 -32 66.5 -70t35.5 -79.5t12.5 -67.5t2.5 -63v-422q0 -164 8 -248h-313q-4 45 -7 156l-137 -170 q-72 -11 -112 -11q-101 0 -176 27.5t-112.5 64.5t-59.5 86t-26.5 79t-4.5 57zM240 1155v195q20 23 34.5 36t51 28.5t80.5 15.5q52 0 137 -35q86 -33 129 -33q40 0 73 12.5t47.5 24t34.5 31.5v-205q-19 -20 -31.5 -31t-46.5 -24t-77 -13q-40 0 -72.5 9t-99.5 36 q-65 21 -103 21q-84 0 -157 -68zM346 301q0 -56 41.5 -89.5t120.5 -33.5q66 0 151 35v223q-75 6 -96 6q-63 0 -104 -12q-45 -12 -72 -38.5t-34 -48t-7 -42.5z" />
<glyph unicode="&#xe4;" horiz-adv-x="1067" d="M31 289q0 205 207 299q108 45 270 45q64 0 151 -12q-2 34 -7.5 59.5t-20 53.5t-38 46.5t-64 30.5t-95.5 12q-131 0 -319 -80l149 261q144 32 273 32q207 0 317 -86q41 -32 66.5 -70t35.5 -79.5t12.5 -67.5t2.5 -63v-422q0 -164 8 -248h-313q-4 45 -7 156l-137 -170 q-72 -11 -112 -11q-101 0 -176 27.5t-112.5 64.5t-59.5 86t-26.5 79t-4.5 57zM123 1294q0 67 49.5 110.5t118.5 43.5t118.5 -43t49.5 -111q0 -69 -49.5 -111t-118.5 -42t-118.5 42.5t-49.5 110.5zM346 301q0 -56 41.5 -89.5t120.5 -33.5q66 0 151 35v223q-75 6 -96 6 q-63 0 -104 -12q-45 -12 -72 -38.5t-34 -48t-7 -42.5zM586 1294q0 68 50.5 111t117.5 43q69 0 118.5 -43.5t49.5 -110.5q0 -68 -49.5 -110.5t-118.5 -42.5t-118.5 43t-49.5 110z" />
<glyph unicode="&#xe5;" horiz-adv-x="1067" d="M31 289q0 205 207 299q108 45 270 45q64 0 151 -12q-2 34 -7.5 59.5t-20 53.5t-38 46.5t-64 30.5t-95.5 12q-131 0 -319 -80l149 261q144 32 273 32q207 0 317 -86q41 -32 66.5 -70t35.5 -79.5t12.5 -67.5t2.5 -63v-422q0 -164 8 -248h-313q-4 45 -7 156l-137 -170 q-72 -11 -112 -11q-101 0 -176 27.5t-112.5 64.5t-59.5 86t-26.5 79t-4.5 57zM346 301q0 -56 41.5 -89.5t120.5 -33.5q66 0 151 35v223q-75 6 -96 6q-63 0 -104 -12q-45 -12 -72 -38.5t-34 -48t-7 -42.5zM375 1319q0 88 57.5 149.5t151.5 61.5q93 0 152 -60t59 -149 q0 -88 -57.5 -150.5t-151.5 -62.5q-96 0 -153.5 62.5t-57.5 148.5zM479 1317q0 -45 30 -75t75 -30t75.5 30t30.5 77q0 45 -28.5 74.5t-75.5 29.5q-49 0 -78 -29.5t-29 -76.5z" />
<glyph unicode="&#xe6;" horiz-adv-x="1705" d="M31 297q0 74 34 142.5t97 113.5q121 88 330 88q53 0 155 -10q-6 194 -221 194q-131 0 -311 -82l149 258q137 35 262 35q148 0 244 -47q58 -33 88 -71q48 44 111 73q95 45 209 45q118 0 215.5 -44t162.5 -120q40 -48 65.5 -104t35.5 -117t13 -101t3 -95h-698 q34 -141 114 -203t228 -62q159 0 332 74l-148 -256q-133 -33 -291 -33q-80 0 -174 17q-61 14 -112 37t-87.5 52t-54 46t-37.5 41l-122 -170q-94 -23 -172 -23q-110 0 -192 27t-124 63.5t-67 85.5t-31 82t-6 64zM346 307q0 -36 17.5 -62t39.5 -38.5t53.5 -19.5t48 -8t34.5 -1 q98 0 178 35q-34 58 -49 111t-21 129q-25 2 -53 2q-25 0 -45.5 -1t-61.5 -9t-69 -22t-50 -44t-22 -72zM969 633h385q-8 96 -55 150.5t-132 54.5q-75 0 -127 -50q-51 -49 -71 -155z" />
<glyph unicode="&#xe7;" horiz-adv-x="937" d="M51 504q0 105 36 200t104 170t176.5 119.5t242.5 44.5q155 0 289 -57v-274q-105 98 -233 98q-121 0 -196 -84.5t-75 -212.5q0 -82 32 -151t103.5 -114.5t171.5 -45.5q95 0 236 53l-133 -244q-136 -31 -219 -31q-124 0 -226.5 42.5t-169 115t-103 168.5t-36.5 203z M252 -418l184 338h271l-244 -338h-211z" />
<glyph unicode="&#xe8;" horiz-adv-x="1150" d="M51 504q0 232 144 382t397 150q268 0 407 -164q42 -49 68.5 -105.5t36 -119t12 -99t2.5 -93.5h-715q0 -28 31 -96.5t84 -102.5t106.5 -47.5t131.5 -13.5q165 0 327 67l-145 -254q-138 -33 -287 -33q-129 0 -232.5 30t-171 80t-112.5 119t-64.5 143.5t-19.5 156.5z M266 1284v225l486 -184v-221zM397 633h402q-6 99 -58 151q-56 56 -137 56q-74 0 -131.5 -51t-75.5 -156z" />
<glyph unicode="&#xe9;" horiz-adv-x="1150" d="M51 504q0 232 144 382t397 150q268 0 407 -164q42 -49 68.5 -105.5t36 -119t12 -99t2.5 -93.5h-715q0 -28 31 -96.5t84 -102.5t106.5 -47.5t131.5 -13.5q165 0 327 67l-145 -254q-138 -33 -287 -33q-129 0 -232.5 30t-171 80t-112.5 119t-64.5 143.5t-19.5 156.5z M397 633h402q-6 99 -58 151q-56 56 -137 56q-74 0 -131.5 -51t-75.5 -156zM403 1104v221l480 184v-225z" />
<glyph unicode="&#xea;" horiz-adv-x="1150" d="M51 504q0 232 144 382t397 150q268 0 407 -164q42 -49 68.5 -105.5t36 -119t12 -99t2.5 -93.5h-715q0 -28 31 -96.5t84 -102.5t106.5 -47.5t131.5 -13.5q165 0 327 67l-145 -254q-138 -33 -287 -33q-129 0 -232.5 30t-171 80t-112.5 119t-64.5 143.5t-19.5 156.5z M338 1104v227l258 189l266 -189v-227l-266 184zM397 633h402q-6 99 -58 151q-56 56 -137 56q-74 0 -131.5 -51t-75.5 -156z" />
<glyph unicode="&#xeb;" horiz-adv-x="1150" d="M51 504q0 232 144 382t397 150q268 0 407 -164q42 -49 68.5 -105.5t36 -119t12 -99t2.5 -93.5h-715q0 -28 31 -96.5t84 -102.5t106.5 -47.5t131.5 -13.5q165 0 327 67l-145 -254q-138 -33 -287 -33q-129 0 -232.5 30t-171 80t-112.5 119t-64.5 143.5t-19.5 156.5z M176 1294q0 67 49.5 110.5t118.5 43.5t118.5 -43t49.5 -111q0 -69 -49.5 -111t-118.5 -42t-118.5 42.5t-49.5 110.5zM397 633h402q-6 99 -58 151q-56 56 -137 56q-74 0 -131.5 -51t-75.5 -156zM639 1294q0 68 50.5 111t117.5 43q69 0 118.5 -43.5t49.5 -110.5 q0 -68 -49.5 -110.5t-118.5 -42.5t-118.5 43t-49.5 110z" />
<glyph unicode="&#xec;" horiz-adv-x="512" d="M-53 1284v225l485 -184v-221zM90 0v1012h330v-1012h-330z" />
<glyph unicode="&#xed;" horiz-adv-x="512" d="M84 1104v221l479 184v-225zM90 0v1012h330v-1012h-330z" />
<glyph unicode="&#xee;" horiz-adv-x="512" d="M-4 1104v227l258 189l266 -189v-227l-266 184zM90 0v1012h330v-1012h-330z" />
<glyph unicode="&#xef;" horiz-adv-x="512" d="M-143 1294q0 67 49.5 110.5t118.5 43.5t118.5 -43t49.5 -111q0 -69 -49.5 -111t-118.5 -42t-118.5 42.5t-49.5 110.5zM90 0v1012h330v-1012h-330zM319 1294q0 68 50.5 111t117.5 43q69 0 118.5 -43.5t49.5 -110.5q0 -68 -49.5 -110.5t-118.5 -42.5t-118.5 43t-49.5 110z " />
<glyph unicode="&#xf0;" d="M57 514q0 226 133.5 374t354.5 148q64 0 133 -18q-31 67 -88 139l-258 -86l-70 135l213 68q-41 38 -123 88l318 125q72 -52 131 -107l170 56l65 -133l-125 -41q6 -7 33 -43q103 -143 153 -314t50 -327q0 -296 -152 -453q-81 -86 -182 -117t-221 -31q-134 0 -238.5 43.5 t-168 119t-96 170.5t-32.5 204zM406 526q0 -79 14 -145q12 -51 35 -87.5t44 -54t48 -27t39 -10.5t24 -1q50 0 90 24q105 65 105 271q0 57 -8.5 107.5t-28.5 101.5t-62 81.5t-102 30.5q-50 0 -87.5 -20.5t-58 -50t-33 -71.5t-16 -76.5t-3.5 -72.5z" />
<glyph unicode="&#xf1;" d="M94 0v1012h324v-230l162 224q89 30 190 30q156 0 244 -88q31 -31 50 -66t26.5 -76t9.5 -68.5t2 -69.5v-668h-326v530q0 65 -7 109.5t-26 81.5t-56 54.5t-93 17.5q-94 0 -176 -66v-727h-324zM305 1155v195q20 23 34.5 36t51 28.5t80.5 15.5q52 0 137 -35q86 -33 129 -33 q40 0 73 12.5t48 24t35 31.5v-205q-18 -20 -31 -31t-47.5 -24t-77.5 -13q-40 0 -72.5 9t-99.5 36q-65 21 -102 21q-85 0 -158 -68z" />
<glyph unicode="&#xf2;" d="M51 502q0 231 150.5 382.5t402.5 151.5q154 0 275 -59.5t192.5 -178.5t71.5 -282q0 -83 -18.5 -160t-61 -147t-104.5 -121.5t-155.5 -82t-207.5 -30.5q-141 0 -249 45.5t-171 122t-94 167.5t-31 192zM291 1284v225l485 -184v-221zM399 506q0 -58 11 -121 q16 -83 64 -134.5t124 -51.5q41 0 73.5 15.5t53 38t35.5 56t21.5 60.5t10.5 61.5t4.5 49.5t0.5 32q0 36 -3 69.5t-15 79t-32 78t-58 55.5t-89 23q-41 0 -74 -15t-53.5 -37t-35.5 -55t-22 -59.5t-11 -61t-4.5 -49.5t-0.5 -34z" />
<glyph unicode="&#xf3;" d="M51 502q0 231 150.5 382.5t402.5 151.5q154 0 275 -59.5t192.5 -178.5t71.5 -282q0 -83 -18.5 -160t-61 -147t-104.5 -121.5t-155.5 -82t-207.5 -30.5q-141 0 -249 45.5t-171 122t-94 167.5t-31 192zM399 506q0 -58 11 -121q16 -83 64 -134.5t124 -51.5q41 0 73.5 15.5 t53 38t35.5 56t21.5 60.5t10.5 61.5t4.5 49.5t0.5 32q0 36 -3 69.5t-15 79t-32 78t-58 55.5t-89 23q-41 0 -74 -15t-53.5 -37t-35.5 -55t-22 -59.5t-11 -61t-4.5 -49.5t-0.5 -34zM428 1104v221l479 184v-225z" />
<glyph unicode="&#xf4;" d="M51 502q0 231 150.5 382.5t402.5 151.5q154 0 275 -59.5t192.5 -178.5t71.5 -282q0 -83 -18.5 -160t-61 -147t-104.5 -121.5t-155.5 -82t-207.5 -30.5q-141 0 -249 45.5t-171 122t-94 167.5t-31 192zM340 1104v227l258 189l266 -189v-227l-266 184zM399 506 q0 -58 11 -121q16 -83 64 -134.5t124 -51.5q41 0 73.5 15.5t53 38t35.5 56t21.5 60.5t10.5 61.5t4.5 49.5t0.5 32q0 36 -3 69.5t-15 79t-32 78t-58 55.5t-89 23q-41 0 -74 -15t-53.5 -37t-35.5 -55t-22 -59.5t-11 -61t-4.5 -49.5t-0.5 -34z" />
<glyph unicode="&#xf5;" d="M51 502q0 231 150.5 382.5t402.5 151.5q154 0 275 -59.5t192.5 -178.5t71.5 -282q0 -83 -18.5 -160t-61 -147t-104.5 -121.5t-155.5 -82t-207.5 -30.5q-141 0 -249 45.5t-171 122t-94 167.5t-31 192zM305 1155v195q20 23 34.5 36t51 28.5t80.5 15.5q52 0 137 -35 q86 -33 129 -33q40 0 73 12.5t48 24t35 31.5v-205q-18 -20 -31 -31t-47.5 -24t-77.5 -13q-40 0 -72.5 9t-99.5 36q-65 21 -102 21q-85 0 -158 -68zM399 506q0 -58 11 -121q16 -83 64 -134.5t124 -51.5q41 0 73.5 15.5t53 38t35.5 56t21.5 60.5t10.5 61.5t4.5 49.5t0.5 32 q0 36 -3 69.5t-15 79t-32 78t-58 55.5t-89 23q-41 0 -74 -15t-53.5 -37t-35.5 -55t-22 -59.5t-11 -61t-4.5 -49.5t-0.5 -34z" />
<glyph unicode="&#xf6;" d="M51 502q0 231 150.5 382.5t402.5 151.5q154 0 275 -59.5t192.5 -178.5t71.5 -282q0 -83 -18.5 -160t-61 -147t-104.5 -121.5t-155.5 -82t-207.5 -30.5q-141 0 -249 45.5t-171 122t-94 167.5t-31 192zM201 1294q0 67 49.5 110.5t118.5 43.5t118.5 -43t49.5 -111 q0 -69 -49.5 -111t-118.5 -42t-118.5 42.5t-49.5 110.5zM399 506q0 -58 11 -121q16 -83 64 -134.5t124 -51.5q41 0 73.5 15.5t53 38t35.5 56t21.5 60.5t10.5 61.5t4.5 49.5t0.5 32q0 36 -3 69.5t-15 79t-32 78t-58 55.5t-89 23q-41 0 -74 -15t-53.5 -37t-35.5 -55t-22 -59.5 t-11 -61t-4.5 -49.5t-0.5 -34zM664 1294q0 68 50 111t117 43q69 0 118.5 -43.5t49.5 -110.5q0 -68 -49.5 -110.5t-118.5 -42.5t-118 43t-49 110z" />
<glyph unicode="&#xf7;" horiz-adv-x="1366" d="M0 489v211h1364v-211h-1364zM543 262q0 58 39.5 99.5t99.5 41.5q61 0 101 -41t40 -98t-38.5 -98t-100.5 -41q-60 0 -100.5 39.5t-40.5 97.5zM543 924q0 58 39.5 99.5t99.5 41.5q61 0 101 -41t40 -98q0 -56 -38.5 -98t-100.5 -42q-61 0 -101 40t-40 98z" />
<glyph unicode="&#xf8;" d="M2 68l135 129q-86 127 -86 301q0 110 37 207t105 171t174 117t235 43q173 0 313 -88l150 142l129 -140l-143 -137q92 -124 92 -303q0 -150 -64 -271t-188 -192.5t-289 -71.5q-185 0 -321 86l-146 -137zM383 535q0 -12 6 -99l340 334l-14 14q-44 41 -121 41 q-99 0 -155 -81t-56 -209zM463 242q54 -60 133 -60q73 0 123.5 45.5t71 111.5t20.5 146q0 40 -10 88z" />
<glyph unicode="&#xf9;" d="M94 330v682h328v-527q0 -114 8 -149q12 -54 50.5 -85.5t101.5 -31.5q102 0 194 68v725h326v-1012h-326v229l-158 -223q-97 -31 -182 -31q-151 0 -243 84q-33 30 -54.5 64.5t-30 74.5t-11 65.5t-3.5 66.5zM291 1284v225l485 -184v-221z" />
<glyph unicode="&#xfa;" d="M94 330v682h328v-527q0 -114 8 -149q12 -54 50.5 -85.5t101.5 -31.5q102 0 194 68v725h326v-1012h-326v229l-158 -223q-97 -31 -182 -31q-151 0 -243 84q-33 30 -54.5 64.5t-30 74.5t-11 65.5t-3.5 66.5zM428 1104v221l479 184v-225z" />
<glyph unicode="&#xfb;" d="M94 330v682h328v-527q0 -114 8 -149q12 -54 50.5 -85.5t101.5 -31.5q102 0 194 68v725h326v-1012h-326v229l-158 -223q-97 -31 -182 -31q-151 0 -243 84q-33 30 -54.5 64.5t-30 74.5t-11 65.5t-3.5 66.5zM340 1104v227l258 189l266 -189v-227l-266 184z" />
<glyph unicode="&#xfc;" d="M94 330v682h328v-527q0 -114 8 -149q12 -54 50.5 -85.5t101.5 -31.5q102 0 194 68v725h326v-1012h-326v229l-158 -223q-97 -31 -182 -31q-151 0 -243 84q-33 30 -54.5 64.5t-30 74.5t-11 65.5t-3.5 66.5zM203 1294q0 67 49.5 110.5t118.5 43.5t118.5 -43t49.5 -111 q0 -69 -49.5 -111t-118.5 -42t-118.5 42.5t-49.5 110.5zM666 1294q0 68 50.5 111t117.5 43q69 0 118 -43.5t49 -110.5q0 -68 -49 -110.5t-118 -42.5t-118.5 43t-49.5 110z" />
<glyph unicode="&#xfd;" horiz-adv-x="1110" d="M0 1014h352l213 -703l213 703h332l-377 -994q-31 -80 -52 -125t-67 -110.5t-99.5 -100t-142.5 -61t-202 -26.5q-69 0 -150 14l82 231q45 -10 70 -10q61 0 116.5 42t88.5 136zM383 1104v221l479 184v-225z" />
<glyph unicode="&#xfe;" d="M94 -428v1874h334v-637l137 203q79 24 142 24q201 0 318.5 -141.5t117.5 -374.5q0 -128 -38 -233t-102.5 -172t-148.5 -103.5t-178 -36.5q-130 0 -248 74v-477h-334zM428 270q73 -57 152 -57q101 0 161 83.5t60 219.5q0 133 -56 207q-61 84 -172 84q-74 0 -145 -41v-496z " />
<glyph unicode="&#xff;" horiz-adv-x="1110" d="M0 1014h352l213 -703l213 703h332l-377 -994q-31 -80 -52 -125t-67 -110.5t-99.5 -100t-142.5 -61t-202 -26.5q-69 0 -150 14l82 231q45 -10 70 -10q61 0 116.5 42t88.5 136zM156 1294q0 67 49.5 110.5t118.5 43.5t118.5 -43t49.5 -111q0 -69 -49.5 -111t-118.5 -42 t-118.5 42.5t-49.5 110.5zM618 1294q0 68 50.5 111t117.5 43q69 0 118.5 -43.5t49.5 -110.5q0 -68 -49.5 -110.5t-118.5 -42.5t-118.5 43t-49.5 110z" />
<glyph unicode="&#x152;" horiz-adv-x="2174" d="M63 709q0 142 42.5 267t117 216.5t174 158t215.5 99.5t240 33q96 0 264 -35h948v-285h-573v-276h494v-283h-494v-317h688l-170 -287h-901q-104 -23 -133 -27q-72 -10 -133 -10q-121 0 -234 30t-212.5 91.5t-173.5 149t-116.5 209.5t-42.5 266zM465 719 q0 -218 113.5 -349.5t308.5 -131.5q122 0 229 49v876q-133 45 -223 45q-194 0 -311 -134t-117 -355z" />
<glyph unicode="&#x153;" horiz-adv-x="1878" d="M51 498q0 246 152.5 393t398.5 147q242 0 365 -131q53 49 118 78q107 51 246 51q251 0 389 -155q43 -50 71 -109.5t38.5 -123.5t13 -103t2.5 -92h-696q6 -33 14.5 -59.5t33 -66t58 -66t94.5 -46.5t140 -20q152 0 332 73l-150 -256q-145 -37 -287 -37q-160 0 -286 52 q-77 32 -131 86q-138 -138 -385 -138q-156 0 -274 57t-187.5 177t-69.5 289zM393 508q0 -68 15 -135q23 -86 71.5 -130t116.5 -44q47 0 84 18t58.5 50t35.5 64.5t19.5 72t7.5 61.5t2 43q0 27 -3 55.5t-10 65t-22 67.5t-36 58.5t-55 43t-77 15.5q-45 0 -81 -18t-59.5 -47.5 t-38.5 -69.5t-21.5 -82t-6.5 -88zM1141 631h383q-7 110 -61 157.5t-128 47.5q-75 0 -127 -54q-46 -48 -67 -151z" />
<glyph unicode="&#x178;" horiz-adv-x="1449" d="M0 1446h426l311 -567l314 567h399l-535 -916v-530h-380v530zM326 1722q0 67 49.5 110.5t118.5 43.5t118.5 -43t49.5 -111q0 -69 -49.5 -111t-118.5 -42t-118.5 42.5t-49.5 110.5zM788 1722q0 68 50.5 111t117.5 43q69 0 118.5 -43.5t49.5 -110.5q0 -68 -49.5 -110.5 t-118.5 -42.5t-118.5 43t-49.5 110z" />
<glyph unicode="&#x2c6;" horiz-adv-x="598" d="M37 1104v227l258 189l266 -189v-227l-266 184z" />
<glyph unicode="&#x2dc;" horiz-adv-x="598" d="M4 1155v195q20 23 34.5 36t51 28.5t80.5 15.5q52 0 137 -35q86 -33 129 -33q40 0 73 12.5t48 24t35 31.5v-205q-18 -20 -31 -31t-47.5 -24t-77.5 -13q-40 0 -72.5 9t-99.5 36q-65 21 -102 21q-85 0 -158 -68z" />
<glyph unicode="&#x2000;" horiz-adv-x="979" />
<glyph unicode="&#x2001;" horiz-adv-x="1958" />
<glyph unicode="&#x2002;" horiz-adv-x="979" />
<glyph unicode="&#x2003;" horiz-adv-x="1958" />
<glyph unicode="&#x2004;" horiz-adv-x="652" />
<glyph unicode="&#x2005;" horiz-adv-x="489" />
<glyph unicode="&#x2006;" horiz-adv-x="326" />
<glyph unicode="&#x2007;" horiz-adv-x="326" />
<glyph unicode="&#x2008;" horiz-adv-x="244" />
<glyph unicode="&#x2009;" horiz-adv-x="391" />
<glyph unicode="&#x200a;" horiz-adv-x="108" />
<glyph unicode="&#x2010;" horiz-adv-x="768" d="M4 428l154 225h606l-154 -225h-606z" />
<glyph unicode="&#x2011;" horiz-adv-x="768" d="M4 428l154 225h606l-154 -225h-606z" />
<glyph unicode="&#x2012;" horiz-adv-x="768" d="M4 428l154 225h606l-154 -225h-606z" />
<glyph unicode="&#x2013;" horiz-adv-x="1280" d="M4 428l156 225h1116l-156 -225h-1116z" />
<glyph unicode="&#x2014;" horiz-adv-x="1536" d="M4 428l158 225h1370l-158 -225h-1370z" />
<glyph unicode="&#x2018;" horiz-adv-x="512" d="M8 942l285 506h168l-189 -506h-264z" />
<glyph unicode="&#x2019;" horiz-adv-x="512" d="M51 942l189 506h264l-285 -506h-168z" />
<glyph unicode="&#x201a;" horiz-adv-x="512" d="M51 -213l189 506h264l-285 -506h-168z" />
<glyph unicode="&#x201c;" horiz-adv-x="937" d="M8 942l285 506h168l-189 -506h-264zM436 942l285 506h166l-189 -506h-262z" />
<glyph unicode="&#x201d;" horiz-adv-x="937" d="M51 942l189 506h264l-285 -506h-168zM477 942l191 506h262l-285 -506h-168z" />
<glyph unicode="&#x201e;" horiz-adv-x="937" d="M10 -213l191 506h262l-285 -506h-168zM438 -213l189 506h262l-285 -506h-166z" />
<glyph unicode="&#x2022;" horiz-adv-x="681" d="M49 721q0 119 85 206t212 87q120 0 203.5 -81.5t83.5 -209.5q0 -124 -79 -208.5t-206 -84.5q-132 0 -215.5 88t-83.5 203z" />
<glyph unicode="&#x2026;" horiz-adv-x="2048" d="M168 154q0 69 47.5 121.5t126.5 52.5q75 0 123.5 -52t48.5 -122q0 -73 -49 -122.5t-123 -49.5q-76 0 -125 51t-49 121zM850 154q0 69 47.5 121.5t126.5 52.5q75 0 123.5 -52t48.5 -122q0 -73 -49 -122.5t-123 -49.5q-76 0 -125 51t-49 121zM1532 154q0 69 47.5 121.5 t126.5 52.5q75 0 123.5 -52t48.5 -122q0 -73 -49 -122.5t-123 -49.5q-76 0 -125 51t-49 121z" />
<glyph unicode="&#x202f;" horiz-adv-x="391" />
<glyph unicode="&#x2039;" horiz-adv-x="512" d="M2 545l221 319h287l-223 -319l223 -324h-285z" />
<glyph unicode="&#x203a;" horiz-adv-x="512" d="M2 221l223 320l-223 323h285l223 -323l-223 -320h-285z" />
<glyph unicode="&#x205f;" horiz-adv-x="489" />
<glyph unicode="&#x2122;" horiz-adv-x="1406" d="M16 1327v119h570v-119h-209v-561h-146v561h-215zM643 766v680h188l164 -514l156 514h190v-680h-141l6 391q0 39 8 139q-18 -66 -30 -112l-127 -418h-129l-131 418q-2 8 -15.5 54t-15.5 54q7 -40 10 -135l8 -391h-141z" />
<glyph unicode="&#x25fc;" horiz-adv-x="1013" d="M0 0v1014h1014v-1014h-1014z" />
<glyph unicode="&#xfb01;" d="M-29 778l125 234h23v61q1 50 3.5 77.5t13.5 73.5t32 83q102 174 367 174q99 0 192 -25v-242q-62 27 -115 27q-113 0 -147 -94q-12 -35 -12 -135h221v-234h-221v-778h-334v778h-148zM770 1294q0 68 49.5 111t120.5 43q68 0 117 -43t49 -111q0 -70 -49 -111.5t-119 -41.5 q-69 0 -118.5 42.5t-49.5 110.5zM774 0v1012h330v-1012h-330z" />
<glyph unicode="&#xfb02;" d="M-29 778l125 234h23v61q1 50 3.5 77.5t13.5 73.5t32 83q102 174 367 174q103 0 190 -25v-242q-54 27 -113 27q-113 0 -147 -94q-12 -35 -12 -135h221v-234h-221v-778h-334v778h-148zM772 0v1448h334v-1448h-334z" />
</font>
</defs>
</svg>
