<?xml version="1.0" standalone="no"?>
<!DOCTYPE svg PUBLIC "-//W3C//DTD SVG 1.1//EN" "http://www.w3.org/Graphics/SVG/1.1/DTD/svg11.dtd" >
<svg xmlns="http://www.w3.org/2000/svg">
<metadata></metadata>
<defs>
<font id="delta_jaegerlight" horiz-adv-x="1110" >
<font-face units-per-em="2048" ascent="1638" descent="-410" />
<missing-glyph horiz-adv-x="598" />
<glyph horiz-adv-x="2048" />
<glyph horiz-adv-x="2048" />
<glyph unicode="&#xd;" horiz-adv-x="681" />
<glyph unicode=" "  horiz-adv-x="598" />
<glyph unicode="&#x09;" horiz-adv-x="598" />
<glyph unicode="&#xa0;" horiz-adv-x="598" />
<glyph unicode="!" horiz-adv-x="512" d="M139 92q0 45 32 77t77 32t75.5 -32t30.5 -79q0 -45 -31.5 -76.5t-76.5 -31.5t-76 32.5t-31 77.5zM154 1446h194l-22 -987l-152 -111q-20 1055 -20 1098z" />
<glyph unicode="&#x22;" horiz-adv-x="712" d="M94 1522h178l-57 -602h-63zM442 1522h179l-58 -602h-63z" />
<glyph unicode="#" horiz-adv-x="1368" d="M86 512v111h358l31 227h-342v117h356l64 479h129l-68 -479h205l62 479h123l-66 -479h344v-117h-358l-31 -227h344v-111h-358l-70 -512h-127l76 512h-207l-76 -512h-119l72 512h-342zM565 623h207l31 227h-205z" />
<glyph unicode="$" horiz-adv-x="980" d="M88 47v182q178 -119 344 -118q125 0 203 67q86 74 86 187q0 53 -15.5 93t-54.5 69.5t-69.5 47t-92.5 43.5l-79 35q-39 18 -56.5 26.5t-63.5 35t-73 53.5t-58.5 65.5t-47 89t-15.5 107.5q0 43 12.5 89t44 105.5t102.5 106.5t171 68v233h154v-225q154 -12 264 -66v-184 q-127 113 -297 113q-125 0 -194.5 -66.5t-69.5 -152.5q0 -143 184 -230l129 -59q45 -20 71.5 -33.5t79 -49.5t83 -74t56 -99.5t25.5 -132.5q0 -143 -91 -246.5t-240 -140.5v-244h-154v231q-188 0 -338 74z" />
<glyph unicode="%" horiz-adv-x="1798" d="M68 944q0 471 335 471q334 0 334 -475q0 -55 -5 -107.5t-25.5 -120t-55.5 -116.5t-99.5 -84t-150.5 -35q-334 0 -333 467zM217 946q0 -356 184 -356q187 0 187 356q0 358 -187 359q-184 0 -184 -359zM557 0l543 1399h139l-543 -1399h-139zM1061 451q0 471 336 471 q334 -1 334 -476q0 -55 -5.5 -107t-26 -119.5t-55 -117t-99 -84t-150.5 -34.5q-334 0 -334 467zM1210 453q0 -356 185 -357q186 1 186 357q0 358 -186 358q-184 0 -185 -358z" />
<glyph unicode="&#x26;" horiz-adv-x="1409" d="M127 406q0 295 317 423q-106 139 -106 281q0 160 117.5 264.5t277.5 104.5q145 0 249.5 -90.5t104.5 -235.5t-106 -248q-35 -35 -83 -61.5t-80 -37.5t-97 -32l702 -684l-123 -121l-239 234l-53 -162q-170 -72 -369 -72q-180 0 -311 82q-201 123 -201 355zM326 432 q0 -133 94 -223q94 -92 256 -92q92 0 184 25.5t139 50.5l45 26l-505 494q-84 -25 -136.5 -86.5t-64.5 -108.5t-12 -86zM526 1122q0 -25 4.5 -49t12.5 -44.5t15 -38t19.5 -36t18.5 -27.5t17.5 -23.5t13.5 -16.5q29 6 58.5 16t70.5 31.5t71.5 49.5t53 72t22.5 97q0 74 -41 119 t-76.5 55t-62.5 10q-86 0 -141.5 -63.5t-55.5 -151.5z" />
<glyph unicode="'" horiz-adv-x="364" d="M94 1522h178l-57 -602h-63z" />
<glyph unicode="(" horiz-adv-x="555" d="M72 633q0 317 129 612q94 209 200 326h152q-299 -420 -299 -942q0 -352 137 -652q55 -118 164 -272h-156q-156 180 -241.5 425t-85.5 503z" />
<glyph unicode=")" horiz-adv-x="555" d="M0 1571h156q156 -180 241.5 -425t85.5 -503q0 -317 -129 -612q-37 -84 -86 -168q-49 -86 -114 -158h-152q299 422 299 942q0 352 -137 651q-55 119 -164 273z" />
<glyph unicode="*" horiz-adv-x="768" d="M59 1167l37 109l232 -66v236h116v-236l226 78l39 -108l-226 -80l138 -191l-93 -67l-139 186l-137 -186l-96 67l137 191z" />
<glyph unicode="+" horiz-adv-x="1482" d="M193 537v153h462v471h170v-471h465v-153h-465v-474h-170v474h-462z" />
<glyph unicode="," horiz-adv-x="425" d="M4 -262l174 430h197l-238 -430h-133z" />
<glyph unicode="-" horiz-adv-x="598" d="M12 467l90 127h484l-88 -127h-486z" />
<glyph unicode="." horiz-adv-x="425" d="M106 92q0 45 31 77t76 32t77 -32t32 -79q0 -45 -32 -76.5t-77 -31.5t-76 31.5t-31 78.5z" />
<glyph unicode="/" horiz-adv-x="681" d="M0 0l512 1446h170l-510 -1446h-172z" />
<glyph unicode="0" horiz-adv-x="1150" d="M84 694q0 109 11 203t44 193.5t85 170t143.5 116.5t210.5 46q489 0 489 -735q0 -86 -8 -166t-39 -184.5t-81 -180t-144.5 -129t-221.5 -53.5q-254 0 -371.5 182.5t-117.5 536.5zM279 700q0 -586 296 -585q295 0 295 585.5t-295 585.5q-78 0 -135 -44t-86.5 -105.5 t-48 -148.5t-22.5 -151.5t-4 -136.5z" />
<glyph unicode="1" horiz-adv-x="1150" d="M289 1059v145l395 232v-1436h-180v1184z" />
<glyph unicode="2" horiz-adv-x="1150" d="M131 0v131l535 627q117 139 116 262q0 113 -76.5 185.5t-191.5 72.5q-190 0 -354 -193v205q178 133 377 133q158 0 272 -73q166 -113 166 -316q0 -78 -31 -153.5t-64.5 -122.5t-93.5 -117l-428 -500h674l-94 -141h-807z" />
<glyph unicode="3" horiz-adv-x="1150" d="M125 55v187q53 -53 155.5 -87t194.5 -34q131 0 217 76.5t86 201.5q0 86 -51 156q-57 76 -146 101.5t-219 25.5h-47l101 143q8 -2 26 -2q102 0 188.5 73t86.5 175q0 92 -65.5 149.5t-159.5 57.5q-96 0 -191.5 -56.5t-157.5 -125.5v200q195 127 377 127q154 0 267.5 -93 t113.5 -249q0 -127 -69.5 -207.5t-163.5 -107.5q129 -27 216 -133.5t87 -239.5q0 -100 -47 -188q-63 -117 -181 -173.5t-260 -56.5q-186 0 -358 80z" />
<glyph unicode="4" horiz-adv-x="1150" d="M25 383l639 1016h176v-871h192l-98 -145h-94v-383h-176v383h-639zM293 528h371q2 449 4 631z" />
<glyph unicode="5" horiz-adv-x="1150" d="M129 53v185q160 -125 342 -125q162 0 250 90t88 227q0 172 -135 262q-123 84 -336 84q-92 0 -168 -8l104 631h674v-150h-518l-59 -340h24q383 0 527 -213q78 -111 77 -260q0 -98 -38 -186q-49 -109 -168 -192t-318 -83q-172 0 -346 78z" />
<glyph unicode="6" horiz-adv-x="1150" d="M129 483q0 68 9 137.5t43 173t90.5 197.5t161 205t243.5 203h264q-88 -45 -195 -129q-162 -127 -264 -271q-96 -135 -116 -217q133 100 276 101q180 0 296 -131t116 -306q0 -182 -111 -315q-129 -156 -352 -156q-86 0 -164 28t-146.5 85t-109.5 158.5t-41 236.5zM317 432 q0 -41 7.5 -83t31 -102.5t83 -98t145.5 -37.5q137 0 206.5 101t69.5 232q0 133 -73.5 215t-194.5 82q-133 0 -204 -90t-71 -219z" />
<glyph unicode="7" horiz-adv-x="1150" d="M182 1255v144h934l-682 -1399h-196l618 1255h-674z" />
<glyph unicode="8" horiz-adv-x="1150" d="M102 389q0 125 73 222.5t194 131.5q-209 96 -209 308q0 147 104 249q125 123 314 123q98 0 204.5 -43t167.5 -157q43 -84 43 -174q0 -125 -63.5 -199t-149.5 -107q119 -27 194 -125t75 -221q0 -100 -41 -180q-47 -94 -151.5 -168t-281.5 -74q-199 0 -336 116t-137 298z M293 397q0 -127 86 -205.5t196 -78.5q123 0 202 79.5t79 202.5q0 127 -83 208t-202 81q-117 0 -197.5 -85t-80.5 -202zM342 1042q0 -94 67.5 -162.5t165.5 -68.5q100 0 168 68t68 174q0 109 -70.5 170t-160.5 61q-106 0 -172 -72.5t-66 -169.5z" />
<glyph unicode="9" horiz-adv-x="1150" d="M100 952q0 207 130 339t333 132q106 0 191 -37q106 -45 187 -159.5t81 -311.5q0 -326 -211 -604q-82 -109 -195 -207q-61 -53 -141 -104h-264q180 94 344 258q90 94 154 199q53 88 77 159q-133 -100 -276 -100q-145 0 -254 90q-156 127 -156 346zM291 954 q0 -143 77.5 -221t190.5 -78q129 0 202 89.5t73 228.5q0 133 -72 224t-195 91t-199.5 -93t-76.5 -241z" />
<glyph unicode=":" horiz-adv-x="512" d="M150 90q0 45 30.5 78t75.5 33t77 -32t32 -79q0 -45 -32 -76.5t-77 -31.5t-75.5 32.5t-30.5 75.5zM150 915q0 45 30.5 78t75.5 33t77 -32t32 -79q0 -45 -32 -76.5t-77 -31.5t-75.5 32.5t-30.5 75.5z" />
<glyph unicode=";" horiz-adv-x="512" d="M10 -262l172 430h197l-236 -430h-133zM178 915q0 45 31 78t76 33t76.5 -32t31.5 -79q0 -45 -31.5 -76.5t-76.5 -31.5t-76 32.5t-31 75.5z" />
<glyph unicode="&#x3c;" horiz-adv-x="1482" d="M233 526v176l953 482v-172l-795 -396l795 -393v-176z" />
<glyph unicode="=" horiz-adv-x="1482" d="M203 338v151h1077v-151h-1077zM203 717v153h1077v-153h-1077z" />
<glyph unicode="&#x3e;" horiz-adv-x="1482" d="M295 41v174l795 393l-795 393v179l954 -480v-176z" />
<glyph unicode="?" horiz-adv-x="854" d="M96 1243v174q152 59 310 60q109 0 192.5 -32t129.5 -77t77 -102.5t40 -99.5t9 -76q0 -160 -105.5 -261.5t-291.5 -128.5v-221l-183 -129v471q381 20 381 269q0 27 -8 56.5t-32.5 74.5t-87 73.5t-152.5 28.5q-133 0 -279 -80zM254 92q0 45 31.5 77t77 32t76 -32t30.5 -79 q0 -45 -31.5 -76.5t-77 -31.5t-76 32.5t-30.5 77.5z" />
<glyph unicode="@" horiz-adv-x="1818" d="M127 516q0 401 261 671.5t652 270.5q305 0 482.5 -168t177.5 -440q0 -270 -150.5 -487.5t-337.5 -217.5q-154 0 -174 154l-123 -131q-59 -12 -106 -12q-141 0 -224 84t-83 227q0 254 159.5 427t395.5 173q150 0 289 -61l-125 -521q-25 -111 -25 -153q0 -70 66 -70 q47 0 106 60q88 90 142.5 229t54.5 276q0 250 -139.5 387.5t-395.5 137.5q-334 0 -546 -234.5t-212 -585.5q0 -307 176.5 -487t479.5 -180q203 0 409 88q133 55 273 160l-60 -179q-121 -74 -237 -114q-203 -70 -395 -70q-356 0 -573.5 211t-217.5 555zM668 492 q0 -217 188 -218q86 0 182 70l142 580q-66 25 -138 24q-172 0 -273 -138t-101 -318z" />
<glyph unicode="A" horiz-adv-x="1323" d="M0 0l586 1446h178l559 -1446h-207l-155 412h-613l-160 -412h-188zM403 557h504l-248 672z" />
<glyph unicode="B" horiz-adv-x="1150" d="M141 0v1446h422q274 0 381 -137q70 -88 70 -205q0 -74 -31 -141q-68 -139 -260 -189q154 -8 252 -105.5t98 -248.5q0 -115 -63 -213q-133 -207 -455 -207h-414zM326 145h192q203 0 299 111q61 72 62 170q0 94 -58 158q-43 47 -117.5 71.5t-124 27.5t-137.5 5h-116v-543z M326 711l92 125h20q172 0 269 59q112 69 112 193q0 88 -63.5 150t-210.5 62h-219v-589z" />
<glyph unicode="C" horiz-adv-x="1366" d="M78 717q0 301 182 508q223 258 623 258q225 0 413 -78v-191q-199 125 -405 125q-152 0 -288 -63.5t-220 -192.5q-100 -156 -100 -346q0 -158 63.5 -291t208.5 -233t389 -100q190 0 416 75l-103 -182q-154 -43 -342 -43q-51 0 -100 3t-144.5 23.5t-174 55.5t-166.5 107.5 t-148 171.5q-104 176 -104 393z" />
<glyph unicode="D" horiz-adv-x="1449" d="M141 0v1446h451q350 0 561 -195q219 -201 219 -524q0 -252 -139 -439.5t-381 -254.5q-121 -33 -295 -33h-416zM330 143h168q82 0 143 6.5t147 26t159 69.5t126 128q94 139 94 350q0 272 -165.5 421.5t-432.5 149.5h-239v-1151z" />
<glyph unicode="E" horiz-adv-x="1024" d="M141 0v1446h809v-143h-620v-467h540v-148h-540v-541h708l-88 -147h-809z" />
<glyph unicode="F" horiz-adv-x="937" d="M141 0v1446h799v-146h-610v-469h530v-149h-530v-682h-189z" />
<glyph unicode="G" horiz-adv-x="1536" d="M82 719q0 336 233 547q233 217 605 217q201 0 432 -82v-193q-225 123 -443 123q-135 0 -247 -43q-180 -68 -279.5 -219t-99.5 -346q0 -266 174 -438q172 -172 436 -172q227 0 340 82q8 344 8 376h-403l104 152h490l-17 -627q-229 -133 -534 -133q-186 0 -342 64 q-219 88 -338 271t-119 421z" />
<glyph unicode="H" horiz-adv-x="1449" d="M141 0v1446h187v-602h794v602h187v-1446h-187v694h-794v-694h-187z" />
<glyph unicode="I" horiz-adv-x="468" d="M141 0v1446h187v-1446h-187z" />
<glyph unicode="J" horiz-adv-x="641" d="M-37 8l78 135q55 -18 98 -18q106 0 144.5 73.5t38.5 198.5v1049h186v-1053q0 -158 -37 -229q-96 -184 -338 -184q-86 0 -170 28z" />
<glyph unicode="K" horiz-adv-x="1193" d="M141 0v1446h189v-668l567 668h217l-575 -668l692 -778h-246l-655 745v-745h-189z" />
<glyph unicode="L" horiz-adv-x="1024" d="M141 0v1446h189v-1299h708l-84 -147h-813z" />
<glyph unicode="M" horiz-adv-x="1878" d="M92 0l158 1446h199l491 -1047l477 1047h195l166 -1446h-195l-121 1155l-534 -1155l-539 1167l-121 -1167h-176z" />
<glyph unicode="N" horiz-adv-x="1536" d="M141 0v1446h203l881 -1012q-16 956 -17 1012h187v-1471l-1078 1213q10 -1145 11 -1188h-187z" />
<glyph unicode="O" horiz-adv-x="1662" d="M78 717q0 264 153 471q70 94 158 158.5t176 91t148.5 36t117.5 9.5q285 0 486 -166q268 -223 268 -588q0 -307 -182 -518q-217 -248 -567 -248q-162 0 -308 57q-213 84 -331.5 272.5t-118.5 424.5zM281 719q0 -256 152.5 -431t406.5 -175q248 0 395 182t147 432 q0 266 -159.5 439t-393.5 173q-238 0 -393 -178t-155 -442z" />
<glyph unicode="P" horiz-adv-x="1067" d="M141 0v1446h408q193 0 303 -76q100 -68 136 -159t36 -164q0 -113 -70 -224q-59 -88 -156.5 -136t-184.5 -60.5t-207 -12.5h-76v-614h-189zM330 637l96 129h27q217 0 307 106q61 74 61 175q0 131 -98 202q-72 51 -229 51h-164v-663z" />
<glyph unicode="Q" horiz-adv-x="1662" d="M78 717q0 264 153 471q215 295 600 295q274 0 472 -154q284 -224 284 -599q0 -148 -48 -277t-93 -188.5t-92 -100.5l262 -254l-131 -125l-279 274q-76 -49 -185.5 -72.5t-189.5 -23.5q-315 0 -526 199q-227 215 -227 555zM281 719q0 -256 152.5 -431t406.5 -175 q248 0 395 182t147 432q0 266 -159.5 439t-393.5 173q-238 0 -393 -178t-155 -442z" />
<glyph unicode="R" horiz-adv-x="1193" d="M141 0v1446h416q207 0 328 -98q131 -106 131 -293q0 -66 -19.5 -124.5t-42 -93t-63.5 -69.5t-57.5 -46t-53.5 -32l424 -690h-217l-393 639q-84 -10 -203 -10h-63v-629h-187zM328 649l94 131q20 -4 70 -4q180 0 264 98q61 68 61 173q0 88 -45 151q-45 66 -111.5 84 t-166.5 18h-166v-651z" />
<glyph unicode="S" horiz-adv-x="1067" d="M96 43v197q178 -129 375 -129q193 0 277 129q41 68 40 137q0 78 -43 137q-49 68 -208 133l-170 74q-33 14 -69 38.5t-83 67.5t-76.5 112t-29.5 148q0 100 51 187q61 106 178 157.5t252 51.5q160 0 330 -70v-194q-159 118 -329 118h-3q-170 0 -246 -114q-37 -55 -37 -119 q0 -45 18.5 -84t40 -63.5t65.5 -51t67.5 -39t74.5 -35.5l97 -43q164 -74 243.5 -165t79.5 -234q0 -137 -78 -239q-143 -186 -442 -187q-178 0 -375 80z" />
<glyph unicode="T" d="M0 1300v146h1110v-146h-463v-1300h-186v1300h-461z" />
<glyph unicode="U" horiz-adv-x="1449" d="M133 522v924h193v-864q0 -233 73 -328q113 -145 328 -145q221 0 332 153q45 63 58 135t13 185v864h189v-918q0 -203 -80 -327q-51 -80 -130 -133.5t-163 -73t-132 -25.5t-93 -6q-172 0 -321.5 70.5t-217.5 220.5q-49 109 -49 268z" />
<glyph unicode="V" horiz-adv-x="1323" d="M0 1446h207l461 -1233l475 1233h180l-573 -1446h-183z" />
<glyph unicode="W" horiz-adv-x="1878" d="M0 1446h197l280 -1208l455 1208h14l445 -1208l305 1208h182l-383 -1446h-192l-377 1016l-385 -1016h-179z" />
<glyph unicode="X" horiz-adv-x="1236" d="M0 0l514 743l-483 703h221l373 -547l381 547h204l-483 -698l510 -748h-217l-402 590l-409 -590h-209z" />
<glyph unicode="Y" horiz-adv-x="1280" d="M0 1446h213l438 -723l434 723h195l-543 -889v-557h-190v557z" />
<glyph unicode="Z" horiz-adv-x="1280" d="M66 0v135l919 1165h-858v146h1085v-139l-915 -1160h993l-88 -147h-1136z" />
<glyph unicode="[" horiz-adv-x="565" d="M145 -295v1866h363v-125h-189v-1614h189v-127h-363z" />
<glyph unicode="\" horiz-adv-x="681" d="M0 1446h172l510 -1446h-170z" />
<glyph unicode="]" horiz-adv-x="565" d="M55 -168h191v1612h-191v127h363v-1866h-363v127z" />
<glyph unicode="^" horiz-adv-x="1482" d="M238 588l415 858h176l418 -858h-178l-326 702l-325 -702h-180z" />
<glyph unicode="_" horiz-adv-x="1024" d="M-20 -301h1064v-121h-1064v121z" />
<glyph unicode="`" horiz-adv-x="606" d="M106 1407v186l396 -307v-160z" />
<glyph unicode="a" horiz-adv-x="937" d="M53 274q0 205 199 291q111 49 276 49q47 0 111 -4q0 166 -36 224.5t-177 58.5q-117 0 -295 -66l105 177q133 32 231 32h6q190 0 275 -98q31 -37 45 -85t17 -84t3 -97v-414q0 -190 25 -258h-176q-20 53 -23 143l-102 -149q-82 -18 -136 -19q-164 0 -254 80q-94 80 -94 219 zM242 281q0 -68 43 -117t143 -49q111 0 211 59v301q-20 2 -53 2q-139 0 -209 -22q-135 -45 -135 -174z" />
<glyph unicode="b" d="M127 78v1368h172v-567l94 135q104 22 186 22h7q195 0 328 -131t133 -375q0 -98 -29 -192q-53 -174 -186.5 -268.5t-317.5 -94.5q-94 0 -204.5 31t-182.5 72zM299 182q109 -67 222 -67h3q84 0 150 32q61 33 103 89.5t57.5 119t20.5 98t5 64.5q0 68 -17.5 130.5t-54 118.5 t-104.5 90t-160 34q-121 0 -225 -47v-662z" />
<glyph unicode="c" horiz-adv-x="854" d="M63 496q0 244 158 399q143 143 369 143q127 0 252 -51v-168q-133 78 -246 78q-168 0 -262 -125q-80 -100 -80 -270q0 -172 102.5 -280.5t272.5 -108.5q29 0 53.5 2t52 9t42 11t50 16.5t47.5 16.5l-92 -160q-131 -33 -202 -33q-111 0 -212.5 41t-170.5 115 q-133 143 -134 365z" />
<glyph unicode="d" d="M63 489q0 113 35 213q14 47 42 94.5t79 107t138 97t194 37.5q45 0 128 -15t130 -46v469h174v-1446h-174v143l-96 -143q-70 -25 -156 -25q-145 0 -254 56q-240 125 -240 458zM250 483q0 -150 69 -245q86 -121 256 -121q117 0 234 55v657q-100 63 -229 64q-115 0 -197 -68 q-133 -111 -133 -342z" />
<glyph unicode="e" horiz-adv-x="980" d="M63 502q0 231 128 382.5t335 151.5q139 0 240 -69q102 -72 139 -183.5t41 -265.5h-696q0 -262 170 -352q92 -49 217 -49q121 0 276 57l-96 -166q-109 -33 -221 -33q-217 0 -360 115q-172 137 -173 412zM262 651h496q-6 137 -76 192.5t-160 55.5q-66 0 -117 -27.5 t-78.5 -71.5t-43 -79t-21.5 -70z" />
<glyph unicode="f" horiz-adv-x="555" d="M51 885l94 127h27v153q0 305 305 305q43 0 109 -12v-141q-57 18 -94 18q-53 0 -86 -21.5t-45.5 -64.5t-15.5 -73.5t-3 -83.5v-80h205v-127h-205v-885h-170v885h-121z" />
<glyph unicode="g" d="M63 514q0 242 151 383t394 141q215 0 375 -80v-882q0 -137 -49 -238.5t-130 -153t-162 -75t-165 -23.5q-188 0 -366 95v178q63 -55 163.5 -91t204.5 -36q129 0 209 59q43 31 68.5 71t36 95t12.5 89t4 104v49l-92 -138q-65 -22 -169 -22h-9q-94 0 -177 27 q-145 49 -222 169.5t-77 278.5zM254 532q0 -158 81 -257t236 -99q113 1 238 60v628q-96 37 -203 37q-178 0 -265 -110.5t-87 -258.5z" />
<glyph unicode="h" d="M127 0v1446h174v-598l107 153q90 35 215 35q143 0 226 -60.5t112 -137.5q22 -63 22 -163v-9v-666h-176v627q0 55 -7 95t-29.5 83t-74 65.5t-129.5 22.5q-39 0 -76.5 -7t-69.5 -19.5t-53.5 -21.5t-43.5 -22l-23 -14v-809h-174z" />
<glyph unicode="i" horiz-adv-x="425" d="M106 1331q0 43 31 76t76 33t77 -31t32 -78t-32 -77.5t-77 -30.5t-76 31.5t-31 76.5zM127 0v1012h174v-1012h-174z" />
<glyph unicode="j" horiz-adv-x="425" d="M106 1331q0 43 31 76t76 33t77 -31t32 -78t-32 -77.5t-77 -30.5t-76 31.5t-31 76.5zM127 -426v1438h174v-1331z" />
<glyph unicode="k" horiz-adv-x="980" d="M127 0v1446h170v-871l453 437h206l-462 -447l528 -565h-221l-504 539v-539h-170z" />
<glyph unicode="l" horiz-adv-x="425" d="M127 0v1446h174v-1446h-174z" />
<glyph unicode="m" horiz-adv-x="1705" d="M127 0v1012h172v-154l94 137q109 41 209 41q135 0 216 -59t104 -135l108 157q111 39 209 39q203 0 287 -129q53 -82 53 -243v-666h-170v635q0 100 -23 151q-45 104 -190 105q-117 0 -264 -92q6 -57 6 -137v-662h-170v621q0 186 -94 241q-51 29 -125 29q-100 0 -250 -76 v-815h-172z" />
<glyph unicode="n" d="M127 0v1012h174v-164l107 153q90 35 217 35q137 0 222 -60.5t114 -137.5q22 -57 22 -163v-9v-666h-176v596q0 233 -129 281q-45 16 -109 16q-147 0 -268 -84v-809h-174z" />
<glyph unicode="o" horiz-adv-x="1067" d="M63 492q0 215 107 360q131 184 373 184q37 0 76.5 -5t114.5 -35.5t129.5 -82t97.5 -160t43 -253.5q0 -211 -111 -355q-133 -170 -365 -170q-102 0 -192 37q-111 45 -192 161t-81 319zM250 502q0 -176 67 -273q79 -116 213 -116h2q141 0 214 118.5t73 276.5t-69.5 274.5 t-212.5 116.5q-131 0 -209 -106.5t-78 -290.5z" />
<glyph unicode="p" d="M127 -434v1446h174v-144l96 142q83 28 161 28h5q133 0 238 -53q246 -125 246 -457q0 -213 -107 -362q-139 -190 -391 -191q-129 1 -248 60v-469h-174zM301 184q104 -65 223 -65h4q166 0 249 116.5t83 286.5q0 217 -133 316q-80 59 -197 59q-110 0 -229 -57v-656z" />
<glyph unicode="q" d="M63 477q0 127 46 242q41 100 108.5 169.5t142 98.5t129 39t105.5 10q197 0 389 -104v-1366h-170v575l-90 -139q-86 -27 -186 -27q-203 0 -330 123q-143 137 -144 379zM254 481q0 -63 15.5 -121.5t49 -116t101 -92t160.5 -34.5q116 0 233 55v657q-102 63 -229 64 q-141 0 -235.5 -107.5t-94.5 -304.5z" />
<glyph unicode="r" horiz-adv-x="681" d="M127 0v1012h178v-152l96 137q86 35 181 35q51 0 110 -20v-164q-78 39 -160 39q-121 0 -227 -80v-807h-178z" />
<glyph unicode="s" horiz-adv-x="768" d="M76 41v162q133 -90 258 -90q80 0 134 46t54 120q0 113 -157 167l-70 25q-215 78 -215 266q0 150 108.5 224.5t235.5 74.5q112 0 233 -57v-156q-8 8 -24.5 21.5t-71.5 36t-114.5 22.5t-100.5 -19.5t-57.5 -49t-21.5 -50t-5 -36.5q0 -55 36 -87t97 -57l94 -39 q217 -86 218 -276q0 -127 -94.5 -220.5t-260.5 -93.5q-127 0 -276 66z" />
<glyph unicode="t" horiz-adv-x="555" d="M33 885l94 127h25v198l176 56v-254h209v-127h-209v-572q0 -111 18 -145q31 -57 109 -57q55 0 123 28l-105 -151q-53 -12 -90 -13q-135 0 -195 95q-36 54 -36 155v6v654h-119z" />
<glyph unicode="u" d="M127 348v664h176v-633q0 -260 238 -260q72 0 149.5 26.5t116.5 57.5v809h176v-1012h-176v164l-105 -154q-100 -35 -215 -35q-141 0 -224 58.5t-111 136.5q-25 63 -25 178z" />
<glyph unicode="v" horiz-adv-x="937" d="M0 1012h184l299 -819l285 819h170l-379 -1012h-172z" />
<glyph unicode="w" horiz-adv-x="1409" d="M20 1012h183l178 -819l250 819h168l258 -819l170 819h162l-236 -1012h-186l-265 786l-247 -786h-185z" />
<glyph unicode="x" horiz-adv-x="1024" d="M0 0l410 528l-365 484h213l260 -340l266 340h197l-365 -471l408 -541h-217l-299 401l-311 -401h-197z" />
<glyph unicode="y" horiz-adv-x="937" d="M0 1012h184l297 -815l279 815h178l-399 -1059q-59 -162 -144 -246q-113 -113 -295 -113q-39 0 -77 7l45 133h14q76 0 128 19.5t86 61.5t52.5 80.5t40.5 106.5z" />
<glyph unicode="z" horiz-adv-x="937" d="M68 0v135l606 742h-557v135h764v-135l-607 -738h646l-82 -139h-770z" />
<glyph unicode="{" horiz-adv-x="600" d="M23 571v123q109 12 143.5 49t34.5 164v363q0 172 58 236.5t204 64.5h78v-119h-29q-98 0 -120.5 -37t-22.5 -178v-332q0 -123 -35 -178t-135 -92q100 -33 135 -88t35 -180v-326q0 -141 26.5 -179t122.5 -38h23v-119h-78q-145 0 -203.5 65.5t-58.5 258.5v331q0 121 -36 165 t-142 46z" />
<glyph unicode="|" horiz-adv-x="479" d="M154 -295v1866h172v-1866h-172z" />
<glyph unicode="}" horiz-adv-x="600" d="M61 -178h29q53 0 83 12t43 46t15 62.5t2 96.5v332q0 123 34 177t134 93q-98 33 -133 88t-35 180v326q0 57 -1 81.5t-8 57.5t-22.5 45.5t-43 21.5t-70.5 9h-27v121h76q160 0 213 -79t53 -245v-332q0 -121 31 -163.5t144 -46.5v-123q-113 -16 -144 -50t-31 -163v-342 q0 -162 -52 -242t-212 -80h-78v117z" />
<glyph unicode="~" horiz-adv-x="1482" d="M172 449v208q121 133 287 134q51 0 98 -15.5t178 -70.5l96 -41q115 -49 173 -50q147 0 307 193v-213q-160 -150 -314 -150q-100 0 -260 76l-78 37q-133 63 -208 64q-131 0 -279 -172z" />
<glyph unicode="&#xa1;" horiz-adv-x="512" d="M158 1356q0 45 31.5 76.5t76.5 31.5t76 -32.5t31 -77.5t-32 -77t-77 -32t-75.5 32t-30.5 79zM164 0l22 987l152 111q20 -1055 20 -1098h-194z" />
<glyph unicode="&#xa2;" horiz-adv-x="937" d="M68 485q0 133 42 238.5t108.5 165t131 92.5t127.5 45v223h150v-213q106 0 217 -49v-170q-39 27 -64.5 40t-74 25.5t-107.5 12.5q-160 0 -250 -116.5t-90 -272.5q0 -119 41 -202t105.5 -122t122 -54t114.5 -15q94 0 238 55l-95 -158q-76 -20 -157 -26v-217h-150v219 q-55 6 -119.5 36.5t-132 87t-112.5 156t-45 219.5z" />
<glyph unicode="&#xa3;" horiz-adv-x="1150" d="M45 623v137h262v147q0 229 94 342q139 166 383 166q152 0 279 -63v-181q-2 0 -21.5 15.5t-41 28t-52 27.5t-70.5 24.5t-83 9.5q-172 0 -252 -131q-57 -90 -58 -279v-106h334v-137h-334v-482h713l-82 -141h-917l108 141v482h-262z" />
<glyph unicode="&#xa4;" horiz-adv-x="1374" d="M104 223l156 152q-109 150 -108 321q0 170 108 318l-151 151l108 109l152 -150q147 106 319 107q186 0 318 -107l153 152l113 -111l-156 -153q106 -152 107 -318q0 -168 -109 -319l156 -156l-113 -110l-153 155q-90 -61 -158 -83.5t-160 -22.5t-161.5 23.5t-155.5 84.5 l-156 -153zM319 694.5q0 -159.5 106.5 -266t268.5 -106.5q152 0 255.5 106t103.5 264q0 162 -103.5 269.5t-261.5 107.5t-263.5 -107.5t-105.5 -267z" />
<glyph unicode="&#xa5;" horiz-adv-x="1277" d="M20 1399h213l416 -688l414 688h194l-383 -625h222v-123h-295l-66 -106v-58h361v-122h-361v-365h-190v365h-359v122h359v58l-66 106h-293v123h217z" />
<glyph unicode="&#xa6;" horiz-adv-x="477" d="M154 -295v811h172v-811h-172zM154 760v811h172v-811h-172z" />
<glyph unicode="&#xa7;" horiz-adv-x="937" d="M86 535q0 135 90 223t184 119q-195 131 -194 290q0 131 101.5 223.5t269.5 92.5q133 0 272 -70v-186q-129 115 -242 114q-109 0 -160 -54t-51 -118q0 -100 156 -198l100 -64q125 -82 188.5 -162.5t63.5 -191.5q0 -240 -254 -354q164 -121 164 -283q0 -125 -90 -221 q-104 -113 -287 -113q-152 0 -278 64v188q127 -106 248 -106q117 0 166 62.5t49 125.5q0 41 -15.5 75t-47.5 62.5t-54.5 45t-63.5 40.5l-96 60q-102 66 -160.5 141.5t-58.5 194.5zM272 551q0 -141 197 -256q104 29 160 96q51 66 51 141q0 156 -191 254q-84 -20 -136 -68 t-66.5 -88t-14.5 -79z" />
<glyph unicode="&#xa8;" horiz-adv-x="598" d="M33 1331q0 39 28.5 70t71.5 31t74 -29t31 -72t-31 -71.5t-74 -28.5t-71.5 29.5t-28.5 70.5zM360 1331q0 39 29 70t72 31t73.5 -29t30.5 -72t-30.5 -71.5t-73.5 -28.5q-41 0 -71 29.5t-30 70.5z" />
<glyph unicode="&#xa9;" horiz-adv-x="1597" d="M70 727q0 303 212 514t517 211t517 -210t212 -513q0 -311 -213 -523t-518 -212t-516 213t-211 520zM141 721q0 -272 191.5 -465t464 -193t465 192t192.5 464q0 281 -189.5 472t-465.5 191q-274 0 -466 -192.5t-192 -468.5zM395 715q0 209 124 340t321 131q106 0 219 -45 v-156q-106 68 -217 68q-135 0 -214 -89.5t-79 -244.5q0 -154 88 -245t235 -91q115 0 224 47l-88 -151q-92 -25 -164 -25q-199 0 -324 129t-125 332z" />
<glyph unicode="&#xaa;" horiz-adv-x="598" d="M29 967q0 102 76.5 163.5t230.5 61.5h63v22q0 78 -25.5 110t-103.5 32q-72 0 -202 -47l79 131q96 23 156 22q78 0 127 -23.5t67.5 -67.5t22.5 -72.5t4 -75.5v-262q1 -130 19 -173h-127q-12 37 -17 76l-53 -78q-51 -14 -88 -14q-123 0 -176 59.5t-53 135.5zM162 973 q0 -96 110 -96q57 -1 127 34v181h-26q-61 0 -103.5 -7.5t-75 -35t-32.5 -76.5z" />
<glyph unicode="&#xab;" horiz-adv-x="811" d="M51 530l221 322h164l-221 -322l221 -321h-164zM377 530l221 322h164l-223 -322l223 -321h-164z" />
<glyph unicode="&#xac;" horiz-adv-x="1482" d="M143 535v157h1160v-682h-173v525h-987z" />
<glyph unicode="&#xad;" horiz-adv-x="598" d="M12 467l90 127h484l-88 -127h-486z" />
<glyph unicode="&#xae;" horiz-adv-x="1597" d="M70 727q0 303 212 514t517 211t517 -210t212 -513q0 -311 -213 -523t-518 -212t-516 213t-211 520zM141 721q0 -272 191.5 -465t464 -193t465 192t192.5 464q0 281 -189.5 472t-465.5 191q-274 0 -466 -192.5t-192 -468.5zM522 287v872h264q317 0 318 -246 q0 -152 -162 -227l254 -399h-170l-221 366q-35 -6 -98 -6h-39v-360h-146zM668 674l59 98h31q86 0 135 37t49 100q0 70 -47 100.5t-164 30.5h-63v-366z" />
<glyph unicode="&#xaf;" horiz-adv-x="598" d="M35 1221v147h528v-147h-528z" />
<glyph unicode="&#xb0;" horiz-adv-x="724" d="M61 1231q0 125 88.5 213t213 88t213 -88t88.5 -213t-88.5 -213t-213 -88t-213 88t-88.5 213zM184 1231q0 -74 51.5 -126t126.5 -52q74 0 126.5 52t52.5 126t-52.5 126t-126.5 52q-76 0 -127 -52t-51 -126z" />
<glyph unicode="&#xb1;" horiz-adv-x="1482" d="M193 0v156h1097v-156h-1097zM193 725v154h462v448h172v-448h463v-154h-465v-453h-170v453h-462z" />
<glyph unicode="&#xb2;" horiz-adv-x="804" d="M94 494v98l357 399q74 86 73 158q0 66 -47 107.5t-117 41.5q-123 0 -247 -139v166q125 90 262 90q106 0 186 -49q115 -74 115 -209q0 -115 -129 -256l-264 -295h442l-80 -112h-551z" />
<glyph unicode="&#xb3;" horiz-adv-x="804" d="M115 535v149q43 -39 113.5 -64.5t129.5 -25.5q82 0 135.5 45t53.5 117q0 86 -74 127t-188 41h-56l86 116q12 -2 39 -2q51 0 101.5 41t50.5 101q0 53 -40 85.5t-97 32.5q-59 0 -127 -40.5t-115 -92.5v164q145 86 262 86q106 0 184 -62.5t78 -164.5q0 -143 -125 -197 q76 -27 124 -93.5t48 -143.5q0 -113 -90 -195t-243 -82q-121 0 -250 58z" />
<glyph unicode="&#xb4;" horiz-adv-x="598" d="M106 1126v160l396 309v-186z" />
<glyph unicode="&#xb6;" horiz-adv-x="1314" d="M156 1044q0 184 118.5 293t337.5 109h461v-109h-67v-1679h-115v1679h-301v-1679h-113v1006q-150 23 -235.5 123t-85.5 257z" />
<glyph unicode="&#xb7;" horiz-adv-x="425" d="M106 549q0 47 31 78.5t76 31.5t77 -31.5t32 -76.5q0 -47 -32 -79t-79 -32q-45 0 -75 32t-30 77z" />
<glyph unicode="&#xb8;" horiz-adv-x="598" d="M145 -391q82 8 126 42t44 77q0 45 -33.5 69.5t-91.5 24.5l99 209h100l-63 -140q129 -39 129 -170q0 -92 -83 -155.5t-227 -77.5v121z" />
<glyph unicode="&#xb9;" horiz-adv-x="804" d="M217 1155v117l285 162v-940h-144v739z" />
<glyph unicode="&#xba;" horiz-adv-x="681" d="M35 1104q0 147 80 252.5t231 105.5q150 0 225.5 -101.5t75.5 -248.5q0 -133 -77.5 -236.5t-231.5 -103.5q-147 0 -225 96.5t-78 235.5zM168 1114q0 -102 43 -171t131 -69q86 0 130 74t44 170q0 98 -43 170t-131 72q-80 0 -127 -66.5t-47 -179.5z" />
<glyph unicode="&#xbb;" horiz-adv-x="811" d="M49 209l221 321l-221 322h164l221 -322l-221 -321h-164zM373 209l223 321l-223 322h166l221 -322l-221 -321h-166z" />
<glyph unicode="&#xbc;" horiz-adv-x="1798" d="M186 1155v117l285 162v-940h-143v739zM483 0l543 1399h139l-542 -1399h-140zM950 242l439 663h135v-549h137l-82 -114h-55v-242h-135v242h-439zM1163 356h226q0 215 2 355z" />
<glyph unicode="&#xbd;" horiz-adv-x="1798" d="M176 1155v117l285 162v-940h-144v739zM463 0l543 1399h139l-543 -1399h-139zM1036 0v98l357 400q74 86 73 157q0 66 -47 108t-116 42q-123 0 -248 -139v165q125 90 262 91q106 0 186 -50q115 -74 115 -208q0 -115 -129 -256l-264 -295h442l-80 -113h-551z" />
<glyph unicode="&#xbe;" horiz-adv-x="1798" d="M115 535v149q43 -39 113.5 -64.5t129.5 -25.5q82 0 135.5 45t53.5 117q0 86 -74 127t-188 41h-56l86 116q12 -2 39 -2q51 0 101.5 41t50.5 101q0 53 -40 85.5t-97 32.5q-59 0 -127 -40.5t-115 -92.5v164q145 86 262 86q106 0 184 -62.5t78 -164.5q0 -143 -125 -197 q76 -27 124 -93.5t48 -143.5q0 -113 -90 -195t-243 -82q-121 0 -250 58zM571 0l543 1399h139l-542 -1399h-140zM1004 242l438 663h135v-549h137l-82 -114h-55v-242h-135v242h-438zM1217 356h225q0 215 2 355z" />
<glyph unicode="&#xbf;" horiz-adv-x="854" d="M0 356q0 115 60.5 207t164.5 139q61 27 172 43v222l183 129v-471q-94 0 -174 -20.5t-144.5 -84t-64.5 -164.5q0 -94 71.5 -163.5t210.5 -69.5q133 0 279 80v-174q-152 -59 -309 -60q-119 0 -218 43q-72 31 -121 78t-71.5 98.5t-30.5 91t-8 76.5zM385 1356q0 45 32 76.5 t77 31.5t75.5 -32.5t30.5 -77.5t-31.5 -77t-77 -32t-76 32t-30.5 79z" />
<glyph unicode="&#xc0;" horiz-adv-x="1323" d="M0 0l586 1446h178l559 -1446h-207l-155 412h-613l-160 -412h-188zM403 557h504l-248 672zM420 1753v178l454 -229v-160z" />
<glyph unicode="&#xc1;" horiz-adv-x="1323" d="M0 0l586 1446h178l559 -1446h-207l-155 412h-613l-160 -412h-188zM403 557h504l-248 672zM500 1544v154l454 235v-180z" />
<glyph unicode="&#xc2;" horiz-adv-x="1323" d="M0 0l586 1446h178l559 -1446h-207l-155 412h-613l-160 -412h-188zM371 1540v137l288 203l293 -192v-150l-293 168zM403 557h504l-248 672z" />
<glyph unicode="&#xc3;" horiz-adv-x="1323" d="M0 0l586 1446h178l559 -1446h-207l-155 412h-613l-160 -412h-188zM362 1581v148q31 37 80.5 64.5t94.5 27.5q47 0 141 -45q66 -33 133 -33q82 0 170 84v-146q-25 -35 -73 -63.5t-99 -28.5q-55 0 -141 37q-92 39 -138 39q-94 0 -168 -84zM403 557h504l-248 672z" />
<glyph unicode="&#xc4;" horiz-adv-x="1323" d="M0 0l586 1446h178l559 -1446h-207l-155 412h-613l-160 -412h-188zM377 1704q0 41 28.5 70.5t73.5 29.5q43 0 74 -28.5t31 -71.5t-31 -71.5t-74 -28.5t-72.5 29.5t-29.5 70.5zM403 557h504l-248 672zM745 1704q0 41 29 70.5t74 29.5q41 0 71.5 -28.5t30.5 -71.5 t-30.5 -71.5t-71.5 -28.5q-43 0 -73 29.5t-30 70.5z" />
<glyph unicode="&#xc5;" horiz-adv-x="1323" d="M0 0l586 1446h178l559 -1446h-207l-155 412h-613l-160 -412h-188zM403 557h504l-248 672zM457 1726q0 88 59 146.5t148 58.5q90 0 149 -58.5t59 -146.5q0 -90 -59 -148t-149 -58q-92 0 -149.5 58t-57.5 148zM561 1726q0 -47 28.5 -76.5t74 -29.5t74 29.5t28.5 77 t-28.5 76t-73.5 28.5q-43 0 -73 -31t-30 -74z" />
<glyph unicode="&#xc6;" horiz-adv-x="1835" d="M0 0l864 1446h895v-143h-610v-463h532v-148h-532v-545h698l-88 -147h-796v424h-517l-245 -424h-201zM524 561h439v746z" />
<glyph unicode="&#xc7;" horiz-adv-x="1366" d="M78 717q0 301 182 508q223 258 623 258q225 0 413 -78v-191q-199 125 -405 125q-152 0 -288 -63.5t-220 -192.5q-100 -156 -100 -346q0 -158 63.5 -291t208.5 -233t389 -100q190 0 416 75l-103 -182q-154 -43 -342 -43h-28l-35 -78q72 -23 105.5 -64.5t33.5 -113.5 q0 -96 -90 -162.5t-246 -83.5v127q88 8 136.5 44t48.5 81t-37 72t-98 27l75 159q-414 45 -598 353q-104 176 -104 393z" />
<glyph unicode="&#xc8;" horiz-adv-x="1024" d="M141 0v1446h809v-143h-620v-467h540v-148h-540v-541h708l-88 -147h-809zM303 1753v178l455 -229v-160z" />
<glyph unicode="&#xc9;" horiz-adv-x="1024" d="M141 0v1446h809v-143h-620v-467h540v-148h-540v-541h708l-88 -147h-809zM385 1544v154l455 235v-180z" />
<glyph unicode="&#xca;" horiz-adv-x="1024" d="M141 0v1446h809v-143h-620v-467h540v-148h-540v-541h708l-88 -147h-809zM274 1540v137l289 203l293 -192v-150l-293 168z" />
<glyph unicode="&#xcb;" horiz-adv-x="1024" d="M141 0v1446h809v-143h-620v-467h540v-148h-540v-541h708l-88 -147h-809zM264 1704q0 41 29 70.5t74 29.5q43 0 73.5 -28.5t30.5 -71.5t-30.5 -71.5t-73.5 -28.5t-73 29.5t-30 70.5zM633 1704q0 41 28.5 70.5t73.5 29.5q41 0 72 -28.5t31 -71.5t-31 -71.5t-72 -28.5 q-43 0 -72.5 29.5t-29.5 70.5z" />
<glyph unicode="&#xcc;" horiz-adv-x="468" d="M-35 1753v178l455 -229v-160zM141 0v1446h187v-1446h-187z" />
<glyph unicode="&#xcd;" horiz-adv-x="468" d="M55 1544v154l455 235v-180zM141 0v1446h187v-1446h-187z" />
<glyph unicode="&#xce;" horiz-adv-x="468" d="M-59 1540v137l288 203l293 -192v-150l-293 168zM141 0v1446h187v-1446h-187z" />
<glyph unicode="&#xcf;" horiz-adv-x="468" d="M-47 1704q0 41 28.5 70.5t73.5 29.5q43 0 74 -28.5t31 -71.5t-31 -71.5t-74 -28.5t-72.5 29.5t-29.5 70.5zM141 0v1446h187v-1446h-187zM322 1704q0 41 28.5 70.5t73.5 29.5q41 0 71.5 -28.5t30.5 -71.5t-30.5 -71.5t-71.5 -28.5q-43 0 -72.5 29.5t-29.5 70.5z" />
<glyph unicode="&#xd0;" horiz-adv-x="1449" d="M0 707v135h141v604h459q49 0 99.5 -4t134.5 -24.5t156.5 -54.5t150.5 -102.5t131 -158.5q100 -170 100 -379q-2 -236 -133 -427.5t-389 -262.5q-123 -33 -293 -33h-416v707h-141zM330 143h225q274 0 443 141.5t169 434.5q0 190 -90 339.5t-291 207.5q-106 29 -264 28 h-192v-452h399v-135h-399v-564z" />
<glyph unicode="&#xd1;" horiz-adv-x="1536" d="M141 0v1446h203l881 -1012q-16 956 -17 1012h187v-1471l-1078 1213q10 -1145 11 -1188h-187zM479 1581v148q31 37 80 64.5t94 27.5q47 0 142 -45q66 -33 133 -33q82 0 170 84v-146q-25 -35 -73 -63.5t-99 -28.5q-55 0 -142 37q-92 39 -137 39q-94 0 -168 -84z" />
<glyph unicode="&#xd2;" horiz-adv-x="1662" d="M78 717q0 264 153 471q70 94 158 158.5t176 91t148.5 36t117.5 9.5q285 0 486 -166q268 -223 268 -588q0 -307 -182 -518q-217 -248 -567 -248q-162 0 -308 57q-213 84 -331.5 272.5t-118.5 424.5zM281 719q0 -256 152.5 -431t406.5 -175q248 0 395 182t147 432 q0 266 -159.5 439t-393.5 173q-238 0 -393 -178t-155 -442zM621 1753v178l454 -229v-160z" />
<glyph unicode="&#xd3;" horiz-adv-x="1662" d="M78 717q0 264 153 471q70 94 158 158.5t176 91t148.5 36t117.5 9.5q285 0 486 -166q268 -223 268 -588q0 -307 -182 -518q-217 -248 -567 -248q-162 0 -308 57q-213 84 -331.5 272.5t-118.5 424.5zM281 719q0 -256 152.5 -431t406.5 -175q248 0 395 182t147 432 q0 266 -159.5 439t-393.5 173q-238 0 -393 -178t-155 -442zM618 1544v154l455 235v-180z" />
<glyph unicode="&#xd4;" horiz-adv-x="1662" d="M78 717q0 264 153 471q70 94 158 158.5t176 91t148.5 36t117.5 9.5q285 0 486 -166q268 -223 268 -588q0 -307 -182 -518q-217 -248 -567 -248q-162 0 -308 57q-213 84 -331.5 272.5t-118.5 424.5zM281 719q0 -256 152.5 -431t406.5 -175q248 0 395 182t147 432 q0 266 -159.5 439t-393.5 173q-238 0 -393 -178t-155 -442zM539 1540v137l288 203l293 -192v-150l-293 168z" />
<glyph unicode="&#xd5;" horiz-adv-x="1662" d="M78 717q0 264 153 471q70 94 158 158.5t176 91t148.5 36t117.5 9.5q285 0 486 -166q268 -223 268 -588q0 -307 -182 -518q-217 -248 -567 -248q-162 0 -308 57q-213 84 -331.5 272.5t-118.5 424.5zM281 719q0 -256 152.5 -431t406.5 -175q248 0 395 182t147 432 q0 266 -159.5 439t-393.5 173q-238 0 -393 -178t-155 -442zM522 1581v148q31 37 80 64.5t94 27.5q47 0 142 -45q66 -33 133 -33q82 0 170 84v-146q-25 -35 -73 -63.5t-99 -28.5q-55 0 -142 37q-92 39 -137 39q-94 0 -168 -84z" />
<glyph unicode="&#xd6;" horiz-adv-x="1662" d="M78 717q0 264 153 471q70 94 158 158.5t176 91t148.5 36t117.5 9.5q285 0 486 -166q268 -223 268 -588q0 -307 -182 -518q-217 -248 -567 -248q-162 0 -308 57q-213 84 -331.5 272.5t-118.5 424.5zM281 719q0 -256 152.5 -431t406.5 -175q248 0 395 182t147 432 q0 266 -159.5 439t-393.5 173q-238 0 -393 -178t-155 -442zM551 1704q0 41 28.5 70.5t73.5 29.5q43 0 74 -28.5t31 -71.5t-31 -71.5t-74 -28.5t-72.5 29.5t-29.5 70.5zM920 1704q0 41 28.5 70.5t73.5 29.5q41 0 71.5 -28.5t30.5 -71.5t-30.5 -71.5t-71.5 -28.5 q-43 0 -72.5 29.5t-29.5 70.5z" />
<glyph unicode="&#xd7;" horiz-adv-x="1482" d="M291 938l119 121l333 -332l328 330l111 -107l-328 -329l336 -334l-119 -121l-336 332l-327 -330l-109 108l326 330z" />
<glyph unicode="&#xd8;" horiz-adv-x="1662" d="M43 61l190 189q-156 203 -155 463q0 127 41 256q76 238 268.5 376t443.5 138q303 0 486 -170l174 172l102 -107l-172 -170q45 -61 72 -105t59.5 -150.5t32.5 -229.5q0 -164 -61 -309q-88 -213 -273.5 -332t-421.5 -119q-129 0 -247.5 41t-170 76t-75.5 61l-189 -186z M274 713q1 -170 91 -334l833 819q-59 59 -142 95t-133.5 43t-93.5 7q-227 0 -385 -169q-170 -182 -170 -461zM457 260q160 -152 383 -151q150 0 264.5 68.5t179.5 172.5q102 166 102 371q0 186 -96 360z" />
<glyph unicode="&#xd9;" horiz-adv-x="1449" d="M133 522v924h193v-864q0 -233 73 -328q113 -145 328 -145q221 0 332 153q45 63 58 135t13 185v864h189v-918q0 -203 -80 -327q-51 -80 -130 -133.5t-163 -73t-132 -25.5t-93 -6q-172 0 -321.5 70.5t-217.5 220.5q-49 109 -49 268zM483 1753v178l455 -229v-160z" />
<glyph unicode="&#xda;" horiz-adv-x="1449" d="M133 522v924h193v-864q0 -233 73 -328q113 -145 328 -145q221 0 332 153q45 63 58 135t13 185v864h189v-918q0 -203 -80 -327q-51 -80 -130 -133.5t-163 -73t-132 -25.5t-93 -6q-172 0 -321.5 70.5t-217.5 220.5q-49 109 -49 268zM571 1544v154l455 235v-180z" />
<glyph unicode="&#xdb;" horiz-adv-x="1449" d="M133 522v924h193v-864q0 -233 73 -328q113 -145 328 -145q221 0 332 153q45 63 58 135t13 185v864h189v-918q0 -203 -80 -327q-51 -80 -130 -133.5t-163 -73t-132 -25.5t-93 -6q-172 0 -321.5 70.5t-217.5 220.5q-49 109 -49 268zM432 1540v137l289 203l293 -192v-150 l-293 168z" />
<glyph unicode="&#xdc;" horiz-adv-x="1449" d="M133 522v924h193v-864q0 -233 73 -328q113 -145 328 -145q221 0 332 153q45 63 58 135t13 185v864h189v-918q0 -203 -80 -327q-51 -80 -130 -133.5t-163 -73t-132 -25.5t-93 -6q-172 0 -321.5 70.5t-217.5 220.5q-49 109 -49 268zM438 1704q0 41 29 70.5t74 29.5 q43 0 73.5 -28.5t30.5 -71.5t-30.5 -71.5t-73.5 -28.5t-73 29.5t-30 70.5zM807 1704q0 41 28.5 70.5t73.5 29.5q41 0 72 -28.5t31 -71.5t-31 -71.5t-72 -28.5q-43 0 -72.5 29.5t-29.5 70.5z" />
<glyph unicode="&#xdd;" horiz-adv-x="1280" d="M0 1446h213l438 -723l434 723h195l-543 -889v-557h-190v557zM512 1544v154l455 235v-180z" />
<glyph unicode="&#xde;" horiz-adv-x="1024" d="M141 0v1446h189v-295h200q301 0 424 -178q70 -96 70 -219q0 -133 -84 -244q-47 -63 -114.5 -105.5t-148.5 -58.5t-138.5 -21.5t-135.5 -5.5h-73v-319h-189zM330 342l94 129h45q213 0 301 119q51 72 51 155q0 258 -317 259h-174v-662z" />
<glyph unicode="&#xdf;" horiz-adv-x="1067" d="M127 0v1042q0 256 176 361q106 61 240 61q72 0 139 -22q94 -33 149.5 -107.5t55.5 -173.5q0 -100 -59.5 -187t-170.5 -110q123 -20 209 -90q137 -117 138 -338q0 -102 -29 -186q-37 -111 -115 -176.5t-138 -81t-120 -15.5q-76 0 -192 43v162q82 -68 176 -67 q74 0 126 37.5t72.5 96t28.5 101.5t8 82q0 195 -127 281q-92 63 -233 63q-14 0 -31.5 -1t-21.5 -1l104 154q74 0 134.5 58t60.5 155q0 104 -57.5 146t-121.5 42q-72 0 -127 -47q-43 -37 -66.5 -98.5t-27.5 -109.5t-4 -120v-954h-176z" />
<glyph unicode="&#xe0;" horiz-adv-x="937" d="M53 274q0 205 199 291q111 49 276 49q47 0 111 -4q0 166 -36 224.5t-177 58.5q-117 0 -295 -66l105 177q137 33 237 32q190 0 275 -98q31 -37 45 -85t17 -84t3 -97v-414q0 -190 25 -258h-176q-20 53 -23 143l-102 -149q-82 -18 -136 -19q-164 0 -254 80q-94 80 -94 219z M242 281q0 -68 43 -117t143 -49q111 0 211 59v301q-20 2 -53 2q-139 0 -209 -22q-135 -45 -135 -174zM246 1407v186l395 -307v-160z" />
<glyph unicode="&#xe1;" horiz-adv-x="937" d="M53 274q0 205 199 291q111 49 276 49q47 0 111 -4q0 166 -36 224.5t-177 58.5q-117 0 -295 -66l105 177q137 33 237 32q190 0 275 -98q31 -37 45 -85t17 -84t3 -97v-414q0 -190 25 -258h-176q-20 53 -23 143l-102 -149q-82 -18 -136 -19q-164 0 -254 80q-94 80 -94 219z M242 281q0 -68 43 -117t143 -49q111 0 211 59v301q-20 2 -53 2q-139 0 -209 -22q-135 -45 -135 -174zM326 1126v160l395 309v-186z" />
<glyph unicode="&#xe2;" horiz-adv-x="937" d="M53 274q0 205 199 291q111 49 276 49q47 0 111 -4q0 166 -36 224.5t-177 58.5q-117 0 -295 -66l105 177q137 33 237 32q190 0 275 -98q31 -37 45 -85t17 -84t3 -97v-414q0 -190 25 -258h-176q-20 53 -23 143l-102 -149q-82 -18 -136 -19q-164 0 -254 80q-94 80 -94 219z M201 1137v153l268 260l272 -254v-159l-272 229zM242 281q0 -68 43 -117t143 -49q111 0 211 59v301q-20 2 -53 2q-139 0 -209 -22q-135 -45 -135 -174z" />
<glyph unicode="&#xe3;" horiz-adv-x="937" d="M53 274q0 205 199 291q111 49 276 49q47 0 111 -4q0 166 -36 224.5t-177 58.5q-117 0 -295 -66l105 177q137 33 237 32q190 0 275 -98q31 -37 45 -85t17 -84t3 -97v-414q0 -190 25 -258h-176q-20 53 -23 143l-102 -149q-82 -18 -136 -19q-164 0 -254 80q-94 80 -94 219z M182 1194v147q29 37 74 65t88 28q45 0 131 -45q61 -33 123 -33q74 0 158 84v-146q-23 -35 -68 -63.5t-92 -28.5q-51 0 -131 37q-84 39 -127 39q-86 0 -156 -84zM242 281q0 -68 43 -117t143 -49q111 0 211 59v301q-20 2 -53 2q-139 0 -209 -22q-135 -45 -135 -174z" />
<glyph unicode="&#xe4;" horiz-adv-x="937" d="M53 274q0 205 199 291q111 49 276 49q47 0 111 -4q0 166 -36 224.5t-177 58.5q-117 0 -295 -66l105 177q137 33 237 32q190 0 275 -98q31 -37 45 -85t17 -84t3 -97v-414q0 -190 25 -258h-176q-20 53 -23 143l-102 -149q-82 -18 -136 -19q-164 0 -254 80q-94 80 -94 219z M213 1331q0 39 28.5 70t71.5 31t74 -29t31 -72t-31 -71.5t-74 -28.5t-71.5 29.5t-28.5 70.5zM242 281q0 -68 43 -117t143 -49q111 0 211 59v301q-20 2 -53 2q-139 0 -209 -22q-135 -45 -135 -174zM541 1331q0 39 28.5 70t71.5 31t73.5 -29t30.5 -72t-30.5 -71.5t-73.5 -28.5 q-41 0 -70.5 29.5t-29.5 70.5z" />
<glyph unicode="&#xe5;" horiz-adv-x="937" d="M53 274q0 205 199 291q111 49 276 49q47 0 111 -4q0 166 -36 224.5t-177 58.5q-117 0 -295 -66l105 177q137 33 237 32q190 0 275 -98q31 -37 45 -85t17 -84t3 -97v-414q0 -190 25 -258h-176q-20 53 -23 143l-102 -149q-82 -18 -136 -19q-164 0 -254 80q-94 80 -94 219z M242 281q0 -68 43 -117t143 -49q111 0 211 59v301q-20 2 -53 2q-139 0 -209 -22q-135 -45 -135 -174zM268 1356q0 88 59.5 146.5t147.5 58.5q90 0 149.5 -58.5t59.5 -146.5q0 -90 -59.5 -148.5t-149.5 -58.5q-92 0 -149.5 58.5t-57.5 148.5zM373 1356q0 -47 28.5 -77 t73.5 -30t74 30t29 77t-29 75.5t-74 28.5q-43 0 -72.5 -30.5t-29.5 -73.5z" />
<glyph unicode="&#xe6;" horiz-adv-x="1536" d="M27 293q0 176 149 270q53 33 130 51.5t129 23.5t149 11l32 2v31q0 41 -5 70.5t-24.5 66.5t-65.5 56.5t-118 19.5q-84 0 -288 -64l102 173q139 33 252 32q160 0 233 -78q18 -18 48 -77q23 31 59 61q119 96 270 96q143 -2 230.5 -65.5t126.5 -141.5q63 -119 63 -286v-27 h-700q0 -109 22 -174q31 -90 117 -159.5t244 -69.5q131 0 284 59l-98 -166q-84 -33 -240 -33q-195 0 -331 105q-39 29 -84 82l-119 -154q-78 -33 -182 -33q-205 0 -295 96.5t-90 221.5zM215 289q0 -53 25 -92q55 -82 190 -82q82 0 153.5 26.5t106.5 55.5q-41 59 -57.5 124.5 t-18.5 196.5q-221 -18 -295 -57q-104 -59 -104 -172zM813 651h498q-18 152 -111 209q-57 35 -125 35q-61 0 -128.5 -37t-108.5 -131q-13 -25 -25 -76z" />
<glyph unicode="&#xe7;" horiz-adv-x="854" d="M63 496q0 244 158 399q143 143 369 143q127 0 252 -51v-168q-133 78 -246 78q-168 0 -262 -125q-80 -100 -80 -270q0 -172 102.5 -280.5t272.5 -108.5q29 0 53.5 2t52 9t42 11t50 16.5t47.5 16.5l-92 -160q-119 -29 -166 -31l-38 -86q129 -39 129 -170q0 -92 -83 -155.5 t-227 -77.5v121q82 8 126 42t44 77q0 45 -33.5 69.5t-91.5 24.5l74 158q-201 23 -319 151q-133 143 -134 365z" />
<glyph unicode="&#xe8;" horiz-adv-x="980" d="M63 502q0 231 128 382.5t335 151.5q139 0 240 -69q102 -72 139 -183.5t41 -265.5h-696q0 -262 170 -352q92 -49 217 -49q121 0 276 57l-96 -166q-109 -33 -221 -33q-217 0 -360 115q-172 137 -173 412zM262 651h496q-6 137 -76 192.5t-160 55.5q-66 0 -117 -27.5 t-78.5 -71.5t-43 -79t-21.5 -70zM272 1407v186l396 -307v-160z" />
<glyph unicode="&#xe9;" horiz-adv-x="980" d="M63 502q0 231 128 382.5t335 151.5q139 0 240 -69q102 -72 139 -183.5t41 -265.5h-696q0 -262 170 -352q92 -49 217 -49q121 0 276 57l-96 -166q-109 -33 -221 -33q-217 0 -360 115q-172 137 -173 412zM262 651h496q-6 137 -76 192.5t-160 55.5q-66 0 -117 -27.5 t-78.5 -71.5t-43 -79t-21.5 -70zM406 1126v160l395 309v-186z" />
<glyph unicode="&#xea;" horiz-adv-x="980" d="M63 502q0 231 128 382.5t335 151.5q139 0 240 -69q102 -72 139 -183.5t41 -265.5h-696q0 -262 170 -352q92 -49 217 -49q121 0 276 57l-96 -166q-109 -33 -221 -33q-217 0 -360 115q-172 137 -173 412zM254 1137v153l268 260l273 -254v-159l-273 229zM262 651h496 q-6 137 -76 192.5t-160 55.5q-66 0 -117 -27.5t-78.5 -71.5t-43 -79t-21.5 -70z" />
<glyph unicode="&#xeb;" horiz-adv-x="980" d="M63 502q0 231 128 382.5t335 151.5q139 0 240 -69q102 -72 139 -183.5t41 -265.5h-696q0 -262 170 -352q92 -49 217 -49q121 0 276 57l-96 -166q-109 -33 -221 -33q-217 0 -360 115q-172 137 -173 412zM252 1331q0 39 28.5 70t71.5 31t74 -29t31 -72t-31 -71.5t-74 -28.5 t-71.5 29.5t-28.5 70.5zM262 651h496q-6 137 -76 192.5t-160 55.5q-66 0 -117 -27.5t-78.5 -71.5t-43 -79t-21.5 -70zM580 1331q0 39 28.5 70t71.5 31t73.5 -29t30.5 -72t-30.5 -71.5t-73.5 -28.5q-41 0 -70.5 29.5t-29.5 70.5z" />
<glyph unicode="&#xec;" horiz-adv-x="425" d="M-35 1407v186l395 -307v-160zM127 0v1012h174v-1012h-174z" />
<glyph unicode="&#xed;" horiz-adv-x="425" d="M59 1126v160l396 309v-186zM127 0v1012h174v-1012h-174z" />
<glyph unicode="&#xee;" horiz-adv-x="425" d="M-55 1137v153l268 260l272 -254v-159l-272 229zM127 0v1012h174v-1012h-174z" />
<glyph unicode="&#xef;" horiz-adv-x="425" d="M-49 1331q0 39 28.5 70t71.5 31t74 -29t31 -72t-31 -71.5t-74 -28.5t-71.5 29.5t-28.5 70.5zM127 0v1012h174v-1012h-174zM279 1331q0 39 28.5 70t71.5 31t73.5 -29t30.5 -72t-30.5 -71.5t-73.5 -28.5q-41 0 -70.5 29.5t-29.5 70.5z" />
<glyph unicode="&#xf0;" horiz-adv-x="1067" d="M63 504q0 160 60.5 278.5t157.5 184.5q102 70 237 69q104 0 201 -57l-6 18q-51 106 -117 193l-305 -100l-53 100l278 90q-66 66 -123 109l-14 10l164 69q51 -31 149 -129l172 56l51 -101l-147 -49q90 -109 161.5 -298t71.5 -410q0 -152 -39.5 -264.5t-108.5 -175 t-147.5 -92.5t-166.5 -30q-233 0 -354.5 149.5t-121.5 379.5zM248 520q0 -190 75.5 -298.5t215.5 -108.5q80 0 139 41t88 105.5t41 125t12 119.5q0 111 -29.5 193.5t-76.5 123.5t-92.5 59.5t-90.5 18.5q-80 0 -139 -37t-88 -98.5t-42 -121.5t-13 -122z" />
<glyph unicode="&#xf1;" d="M127 0v1012h174v-164l107 153q90 35 217 35q137 0 222 -60.5t114 -137.5q23 -59 22 -172v-666h-176v596q0 233 -129 281q-45 16 -109 16q-147 0 -268 -84v-809h-174zM268 1194v147q29 37 74 65t88 28q45 0 131 -45q61 -33 123 -33q74 0 158 84v-146q-23 -35 -68 -63.5 t-92 -28.5q-51 0 -131 37q-84 39 -127 39q-86 0 -156 -84z" />
<glyph unicode="&#xf2;" horiz-adv-x="1067" d="M63 492q0 215 107 360q131 184 373 184q37 0 76.5 -5t114.5 -35.5t129.5 -82t97.5 -160t43 -253.5q0 -211 -111 -355q-133 -170 -365 -170q-102 0 -192 37q-111 45 -192 161t-81 319zM250 502q0 -176 67 -273q80 -117 215 -116q141 0 214 118.5t73 276.5t-69.5 274.5 t-212.5 116.5q-131 0 -209 -106.5t-78 -290.5zM283 1407v186l395 -307v-160z" />
<glyph unicode="&#xf3;" horiz-adv-x="1067" d="M63 492q0 215 107 360q131 184 373 184q37 0 76.5 -5t114.5 -35.5t129.5 -82t97.5 -160t43 -253.5q0 -211 -111 -355q-133 -170 -365 -170q-102 0 -192 37q-111 45 -192 161t-81 319zM250 502q0 -176 67 -273q80 -117 215 -116q141 0 214 118.5t73 276.5t-69.5 274.5 t-212.5 116.5q-131 0 -209 -106.5t-78 -290.5zM410 1126v160l395 309v-186z" />
<glyph unicode="&#xf4;" horiz-adv-x="1067" d="M63 492q0 215 107 360q131 184 373 184q37 0 76.5 -5t114.5 -35.5t129.5 -82t97.5 -160t43 -253.5q0 -211 -111 -355q-133 -170 -365 -170q-102 0 -192 37q-111 45 -192 161t-81 319zM250 502q0 -176 67 -273q80 -117 215 -116q141 0 214 118.5t73 276.5t-69.5 274.5 t-212.5 116.5q-131 0 -209 -106.5t-78 -290.5zM264 1137v153l268 260l273 -254v-159l-273 229z" />
<glyph unicode="&#xf5;" horiz-adv-x="1067" d="M63 492q0 215 107 360q131 184 373 184q37 0 76.5 -5t114.5 -35.5t129.5 -82t97.5 -160t43 -253.5q0 -211 -111 -355q-133 -170 -365 -170q-102 0 -192 37q-111 45 -192 161t-81 319zM248 1194v147q29 37 74 65t88 28q45 0 131 -45q61 -33 123 -33q73 0 157 84v-146 q-23 -35 -67.5 -63.5t-91.5 -28.5q-51 0 -132 37q-84 39 -127 39q-86 0 -155 -84zM250 502q0 -176 67 -273q80 -117 215 -116q141 0 214 118.5t73 276.5t-69.5 274.5t-212.5 116.5q-131 0 -209 -106.5t-78 -290.5z" />
<glyph unicode="&#xf6;" horiz-adv-x="1067" d="M63 492q0 215 107 360q131 184 373 184q37 0 76.5 -5t114.5 -35.5t129.5 -82t97.5 -160t43 -253.5q0 -211 -111 -355q-133 -170 -365 -170q-102 0 -192 37q-111 45 -192 161t-81 319zM250 502q0 -176 67 -273q80 -117 215 -116q141 0 214 118.5t73 276.5t-69.5 274.5 t-212.5 116.5q-131 0 -209 -106.5t-78 -290.5zM266 1331q0 39 29 70t72 31t73.5 -29t30.5 -72t-30.5 -71.5t-73.5 -28.5t-72 29.5t-29 70.5zM594 1331q0 39 28.5 70t71.5 31t74 -29t31 -72t-31 -71.5t-74 -28.5q-41 0 -70.5 29.5t-29.5 70.5z" />
<glyph unicode="&#xf7;" horiz-adv-x="1505" d="M174 532v160h1159v-160h-1159zM639 281q0 51 33 84.5t82 33.5q47 0 80.5 -33.5t33.5 -83t-33.5 -83t-82.5 -33.5q-47 0 -80 33.5t-33 81.5zM639 942q0 51 33 85t82 34q47 0 80.5 -35t33.5 -82q0 -49 -33.5 -84t-82.5 -35q-47 0 -80 34t-33 83z" />
<glyph unicode="&#xf8;" horiz-adv-x="1067" d="M16 37l127 137q-80 143 -80 311q0 299 189 455q121 96 295 96q90 0 168 -29.5t121 -74.5l122 133l97 -88l-133 -146q82 -147 82 -319q0 -211 -99 -350q-137 -186 -377 -187q-184 0 -299 101l-116 -127zM246 504q-1 -119 24 -189l459 500q-80 88 -194 88 q-133 0 -211 -108.5t-78 -290.5zM340 197q70 -88 186 -88q106 0 176 67.5t95.5 154.5t25.5 185q1 100 -28 176z" />
<glyph unicode="&#xf9;" d="M127 348v664h176v-633q0 -260 238 -260q72 0 149.5 26.5t116.5 57.5v809h176v-1012h-176v164l-105 -154q-100 -35 -215 -35q-141 0 -224 58.5t-111 136.5q-25 63 -25 178zM309 1407v186l396 -307v-160z" />
<glyph unicode="&#xfa;" d="M127 348v664h176v-633q0 -260 238 -260q72 0 149.5 26.5t116.5 57.5v809h176v-1012h-176v164l-105 -154q-100 -35 -215 -35q-141 0 -224 58.5t-111 136.5q-25 63 -25 178zM434 1126v160l395 309v-186z" />
<glyph unicode="&#xfb;" d="M127 348v664h176v-633q0 -260 238 -260q72 0 149.5 26.5t116.5 57.5v809h176v-1012h-176v164l-105 -154q-100 -35 -215 -35q-141 0 -224 58.5t-111 136.5q-25 63 -25 178zM287 1137v153l268 260l272 -254v-159l-272 229z" />
<glyph unicode="&#xfc;" d="M127 348v664h176v-633q0 -260 238 -260q72 0 149.5 26.5t116.5 57.5v809h176v-1012h-176v164l-105 -154q-100 -35 -215 -35q-141 0 -224 58.5t-111 136.5q-25 63 -25 178zM291 1331q0 39 28.5 70t71.5 31t74 -29t31 -72t-31 -71.5t-74 -28.5t-71.5 29.5t-28.5 70.5z M618 1331q0 39 29 70t72 31t73.5 -29t30.5 -72t-30.5 -71.5t-73.5 -28.5q-41 0 -71 29.5t-30 70.5z" />
<glyph unicode="&#xfd;" horiz-adv-x="937" d="M0 1012h184l297 -815l279 815h178l-399 -1059q-59 -162 -144 -246q-113 -113 -295 -113q-39 0 -77 7l45 133h14q76 0 128 19.5t86 61.5t52.5 80.5t40.5 106.5zM377 1126v160l395 309v-186z" />
<glyph unicode="&#xfe;" d="M127 -434v1880h174v-578l96 142q82 29 166 28q236 0 360 -143t124 -373q0 -227 -133.5 -387t-370.5 -160q-119 0 -242 60v-469h-174zM301 184q102 -66 225 -65q168 0 251 115.5t83 277.5q0 203 -99 294t-229 91q-102 0 -231 -57v-656z" />
<glyph unicode="&#xff;" horiz-adv-x="937" d="M0 1012h184l297 -815l279 815h178l-399 -1059q-59 -162 -144 -246q-113 -113 -295 -113q-39 0 -77 7l45 133h14q76 0 128 19.5t86 61.5t52.5 80.5t40.5 106.5zM219 1331q0 39 28.5 70t71.5 31t74 -29t31 -72t-31 -71.5t-74 -28.5t-71.5 29.5t-28.5 70.5zM547 1331 q0 39 28.5 70t71.5 31t74 -29t31 -72t-31 -71.5t-74 -28.5q-41 0 -70.5 29.5t-29.5 70.5z" />
<glyph unicode="&#x152;" horiz-adv-x="2004" d="M78 711q0 342 235 563q217 203 549 203q119 0 254 -31h813v-143h-622v-463h542v-148h-542v-545h712l-90 -147h-842q-113 -31 -235 -31q-311 0 -520 172q-82 68 -138.5 154t-79 171t-29.5 140.5t-7 104.5zM283 719q0 -342 245 -508q141 -96 334 -96q131 0 256 47v1124 q-141 51 -260 51q-152 0 -262.5 -61.5t-169.5 -128.5q-53 -61 -98 -173t-45 -255z" />
<glyph unicode="&#x153;" horiz-adv-x="1748" d="M63 489q0 233 125 390t365 157q250 0 371 -202q43 76 137 139t235 63q137 0 240 -69q102 -72 138 -184.5t38 -264.5h-694q0 -264 172 -352q92 -49 215 -49q121 0 276 57l-98 -166q-109 -33 -219 -33q-139 0 -263 54.5t-179 158.5q-113 -213 -390 -213q-98 0 -178 29 q-117 43 -204 160t-87 325zM250 502q0 -164 69.5 -275.5t219.5 -111.5q133 0 211.5 99.5t78.5 283.5q0 195 -79.5 298t-212.5 103q-137 0 -212 -109.5t-75 -287.5zM1030 651h494q-4 125 -71 186.5t-163 61.5q-66 0 -117 -28.5t-79.5 -72.5t-43 -80t-20.5 -67z" />
<glyph unicode="&#x178;" horiz-adv-x="1280" d="M0 1446h213l438 -723l434 723h195l-543 -889v-557h-190v557zM367 1704q0 41 28.5 70.5t73.5 29.5q43 0 73.5 -28.5t30.5 -71.5t-30.5 -71.5t-73.5 -28.5t-72.5 29.5t-29.5 70.5zM735 1704q0 41 29 70.5t74 29.5q41 0 71.5 -28.5t30.5 -71.5t-30.5 -71.5t-71.5 -28.5 q-43 0 -73 29.5t-30 70.5z" />
<glyph unicode="&#x2c6;" horiz-adv-x="598" d="M29 1137v153l268 260l272 -254v-159l-272 229z" />
<glyph unicode="&#x2dc;" horiz-adv-x="598" d="M12 1194v147q29 37 74 65t88 28q45 0 131 -45q61 -33 123 -33q74 0 158 84v-146q-23 -35 -68 -63.5t-92 -28.5q-51 0 -131 37q-84 39 -127 39q-86 0 -156 -84z" />
<glyph unicode="&#x2000;" horiz-adv-x="966" />
<glyph unicode="&#x2001;" horiz-adv-x="1933" />
<glyph unicode="&#x2002;" horiz-adv-x="966" />
<glyph unicode="&#x2003;" horiz-adv-x="1933" />
<glyph unicode="&#x2004;" horiz-adv-x="644" />
<glyph unicode="&#x2005;" horiz-adv-x="483" />
<glyph unicode="&#x2006;" horiz-adv-x="322" />
<glyph unicode="&#x2007;" horiz-adv-x="322" />
<glyph unicode="&#x2008;" horiz-adv-x="241" />
<glyph unicode="&#x2009;" horiz-adv-x="386" />
<glyph unicode="&#x200a;" horiz-adv-x="107" />
<glyph unicode="&#x2010;" horiz-adv-x="598" d="M12 467l90 127h484l-88 -127h-486z" />
<glyph unicode="&#x2011;" horiz-adv-x="598" d="M12 467l90 127h484l-88 -127h-486z" />
<glyph unicode="&#x2012;" horiz-adv-x="598" d="M12 467l90 127h484l-88 -127h-486z" />
<glyph unicode="&#x2013;" horiz-adv-x="1095" d="M12 467l90 127h981l-90 -127h-981z" />
<glyph unicode="&#x2014;" horiz-adv-x="1515" d="M12 467l90 127h1401l-90 -127h-1401z" />
<glyph unicode="&#x2018;" horiz-adv-x="425" d="M74 1069l200 377h115l-149 -377h-166z" />
<glyph unicode="&#x2019;" horiz-adv-x="425" d="M37 1069l151 377h164l-198 -377h-117z" />
<glyph unicode="&#x201a;" horiz-adv-x="425" d="M37 -203l151 379h166l-200 -379h-117z" />
<glyph unicode="&#x201c;" horiz-adv-x="724" d="M74 1069l200 377h115l-149 -377h-166zM373 1069l198 377h117l-149 -377h-166z" />
<glyph unicode="&#x201d;" horiz-adv-x="724" d="M37 1069l151 377h164l-198 -377h-117zM336 1069l151 377h164l-198 -377h-117z" />
<glyph unicode="&#x201e;" horiz-adv-x="724" d="M37 -203l151 379h166l-200 -379h-117zM336 -203l149 379h166l-198 -379h-117z" />
<glyph unicode="&#x2022;" horiz-adv-x="681" d="M96 720.5q0 102.5 72 174.5t172 72q102 0 174 -70t72 -170q0 -106 -68.5 -177t-173 -71t-176.5 69.5t-72 172z" />
<glyph unicode="&#x2026;" horiz-adv-x="2048" d="M231 86q0 47 31 79t76 32t76.5 -32t31.5 -77t-31.5 -78t-76.5 -33t-76 32t-31 77zM918 86q0 47 30.5 79t75.5 32t77 -32t32 -77t-32 -78t-77 -33t-75.5 32t-30.5 77zM1599 86q0 47 31 79t76 32t77 -32t32 -77t-32 -78t-77 -33t-76 32t-31 77z" />
<glyph unicode="&#x202f;" horiz-adv-x="386" />
<glyph unicode="&#x2039;" horiz-adv-x="512" d="M63 530l224 322h164l-224 -322l224 -321h-164z" />
<glyph unicode="&#x203a;" horiz-adv-x="512" d="M61 209l224 321l-224 322h164l221 -322l-221 -321h-164z" />
<glyph unicode="&#x205f;" horiz-adv-x="483" />
<glyph unicode="&#x20ac;" horiz-adv-x="1306" d="M109 506v123h139q0 119 4 164h-143v122h157q55 250 210 379t386 129q214 0 355 -86v-176q-61 55 -156.5 90t-183.5 35q-178 0 -280.5 -92t-141.5 -279h499v-122h-518q-2 -31 -2 -84q0 -45 4 -80h516v-123h-503q27 -186 148.5 -286.5t330.5 -100.5q164 0 338 84l-76 -170 q-133 -57 -281 -58q-545 0 -651 531h-151z" />
<glyph unicode="&#x2122;" horiz-adv-x="1513" d="M70 1343v103h524v-103h-199v-577h-125v577h-200zM643 768l51 678h168l154 -391l155 391h150l61 -678h-122l-41 510l-199 -510h-14l-203 518l-41 -518h-119z" />
<glyph unicode="&#xe000;" horiz-adv-x="1013" d="M0 0v1014h1014v-1014h-1014z" />
<glyph unicode="&#xfb01;" horiz-adv-x="980" d="M51 885l94 127h27v153q0 305 305 305q43 0 109 -12v-141q-57 18 -94 18q-53 0 -86 -21.5t-45.5 -64.5t-15.5 -73.5t-3 -83.5v-80h205v-127h-205v-885h-170v885h-121zM670 1370q0 41 27.5 70.5t70.5 29.5q41 0 69.5 -28.5t28.5 -71.5t-28.5 -71.5t-69.5 -28.5t-69.5 29.5 t-28.5 70.5zM682 0v1012h174v-1012h-174z" />
<glyph unicode="&#xfb02;" horiz-adv-x="980" d="M51 885l94 127h27v153q0 305 305 305q43 0 109 -12v-141q-57 18 -94 18q-53 0 -86 -21.5t-45.5 -64.5t-15.5 -73.5t-3 -83.5v-80h205v-127h-205v-885h-170v885h-121zM682 0v1446h174v-1446h-174z" />
</font>
</defs>
</svg>
