<?xml version="1.0" standalone="no"?>
<!DOCTYPE svg PUBLIC "-//W3C//DTD SVG 1.1//EN" "http://www.w3.org/Graphics/SVG/1.1/DTD/svg11.dtd" >
<svg xmlns="http://www.w3.org/2000/svg">
<metadata></metadata>
<defs>
<font id="delta_jaegerbold" horiz-adv-x="1236" >
<font-face units-per-em="2048" ascent="1638" descent="-410" />
<missing-glyph horiz-adv-x="598" />
<glyph horiz-adv-x="2048" />
<glyph horiz-adv-x="2048" />
<glyph unicode="&#xd;" horiz-adv-x="681" />
<glyph unicode=" "  horiz-adv-x="598" />
<glyph unicode="&#x09;" horiz-adv-x="598" />
<glyph unicode="&#xa0;" horiz-adv-x="598" />
<glyph unicode="!" horiz-adv-x="598" d="M100 182q0 80 55.5 140.5t145.5 60.5q92 0 146.5 -60.5t54.5 -142.5q0 -84 -55.5 -141t-143.5 -57q-90 0 -146.5 59t-56.5 141zM100 1446h402l-35 -866l-330 -146q-31 791 -37 1012z" />
<glyph unicode="&#x22;" horiz-adv-x="731" d="M41 1522h289l-90 -631h-105zM401 1522h289l-90 -631h-104z" />
<glyph unicode="#" horiz-adv-x="1368" d="M70 352v285h229l27 188h-203v285h239l50 336h290l-47 -336h170l45 336h291l-45 -336h182v-285h-223l-24 -188h196v-285h-237l-49 -352h-293l51 352h-168l-49 -352h-291l47 352h-188zM590 637h168l28 188h-170z" />
<glyph unicode="$" horiz-adv-x="1148" d="M104 68v366q66 -57 175.5 -101t199.5 -44q86 0 125 34.5t39 88.5q0 47 -28.5 75.5t-104.5 57.5l-131 51q-274 109 -275 360q0 166 89.5 280t257.5 159v291h282v-283q143 -14 287 -80v-346q-156 129 -315 129q-84 0 -124 -32t-40 -79t29.5 -74.5t105.5 -58.5l145 -59 q268 -109 269 -371q0 -55 -15.5 -113.5t-52.5 -123t-111.5 -116.5t-177.5 -75v-291h-282v279q-197 14 -347 76z" />
<glyph unicode="%" horiz-adv-x="1978" d="M39 952q0 199 89 331t296 132q209 0 300 -128t91 -335q0 -475 -393 -475q-111 0 -189.5 41t-118.5 112.5t-57.5 149.5t-17.5 172zM336 961q0 -156 20.5 -210.5t73.5 -54.5q49 0 68.5 53.5t19.5 208.5q0 121 -19.5 179.5t-68.5 58.5q-51 0 -72.5 -56t-21.5 -179zM485 0 l752 1399h258l-754 -1399h-256zM1163 459q0 199 89 331t296 132q209 0 300 -128t91 -335q0 -475 -393 -475q-111 0 -189.5 41t-118.5 112.5t-57.5 149.5t-17.5 172zM1460 467q0 -156 20.5 -210t73.5 -54q49 0 68.5 53t19.5 209q0 121 -19 179t-69 58q-51 0 -72.5 -56 t-21.5 -179z" />
<glyph unicode="&#x26;" horiz-adv-x="1579" d="M23 412q0 158 91 267t255 155q-98 111 -99 251q0 184 152 297q139 100 354 101q307 0 445 -185q74 -96 73 -215q0 -184 -147 -307q-27 -23 -98 -63l546 -471l-272 -305l-385 333l-143 -264q-135 -43 -263 -43q-227 0 -368 126t-141 323zM453 455q0 -68 48 -109t94 -50 t91 -9q96 -1 205 30l-307 279q-70 -16 -100.5 -57t-30.5 -84zM690 1094q0 -94 111 -168q23 8 47 22.5t56 54t32 89.5q0 55 -33 92t-86 37q-25 0 -50.5 -7.5t-51 -38t-25.5 -81.5z" />
<glyph unicode="'" horiz-adv-x="370" d="M41 1522h289l-90 -631h-105z" />
<glyph unicode="(" horiz-adv-x="653" d="M49 645q0 254 83 502t241 426h309q-264 -426 -264 -930q0 -516 264 -938h-309q-158 186 -241 429t-83 511z" />
<glyph unicode=")" horiz-adv-x="653" d="M-29 -295q264 428 265 930q-1 516 -265 938h310q158 -182 240.5 -426t82.5 -514q0 -254 -83 -502t-240 -426h-310z" />
<glyph unicode="*" horiz-adv-x="811" d="M18 1094l74 219l193 -68v201h233v-201l195 68l80 -219l-199 -70l119 -166l-181 -137l-129 170l-118 -170l-193 137l123 166z" />
<glyph unicode="+" horiz-adv-x="1482" d="M186 528v314h351v387h409v-387h350v-314h-350v-397h-409v397h-351z" />
<glyph unicode="," horiz-adv-x="512" d="M-80 -293l236 637h370l-370 -637h-236z" />
<glyph unicode="-" horiz-adv-x="854" d="M0 412l184 266h670l-184 -266h-670z" />
<glyph unicode="." horiz-adv-x="512" d="M55 182q0 80 55.5 140.5t145.5 60.5q92 0 146.5 -60.5t54.5 -142.5q0 -84 -55.5 -141t-143.5 -57q-90 0 -146.5 59t-56.5 141z" />
<glyph unicode="/" horiz-adv-x="894" d="M6 0l510 1446h375l-506 -1446h-379z" />
<glyph unicode="0" horiz-adv-x="1280" d="M39 709q0 82 11 164.5t50 187t101.5 182.5t176.5 132.5t263 54.5q158 0 275.5 -57.5t187.5 -160t103.5 -228t33.5 -275.5q0 -365 -164 -552.5t-438 -187.5q-133 0 -236.5 41t-171 109.5t-111.5 165t-62.5 201t-18.5 223.5zM485 688q0 -395 158 -395q150 0 150 403 q0 86 -4.5 142.5t-17.5 127t-46 106.5t-84 36q-156 0 -156 -420z" />
<glyph unicode="1" horiz-adv-x="1280" d="M248 793v348l659 276v-1417h-436v885z" />
<glyph unicode="2" horiz-adv-x="1280" d="M129 0v324l379 405q70 74 92.5 112t22.5 89q0 61 -38 105t-122 44q-150 0 -301 -159v401q233 109 432 109q190 0 321 -97q80 -59 124 -150t44 -192q0 -186 -161 -368l-271 -299h576l-234 -324h-864z" />
<glyph unicode="3" horiz-adv-x="1280" d="M156 66v383q172 -141 336 -142q86 0 128 42t42 91q0 70 -61.5 107t-156.5 37q-10 0 -157 -6l192 282q18 0 41 4t53.5 31t30.5 72q0 47 -34.5 82.5t-112.5 35.5q-150 0 -271 -135v375q186 104 394 105q287 0 409 -183q59 -84 60 -192q0 -70 -22.5 -125.5t-64.5 -92 t-65 -52t-59 -33.5q129 -25 210.5 -114t81.5 -220q0 -104 -51 -199q-45 -82 -118.5 -138t-154.5 -76.5t-130 -28t-90 -7.5q-209 1 -430 97z" />
<glyph unicode="4" horiz-adv-x="1280" d="M-6 281v217l516 901h549v-805h262l-219 -313h-43v-281h-414v281h-651zM430 594h215v414z" />
<glyph unicode="5" horiz-adv-x="1280" d="M127 72v379q66 -49 168 -94.5t209 -45.5q20 0 47 6.5t63.5 20.5t61 50t24.5 87q0 57 -35.5 98t-93 60.5t-114 29t-113.5 9.5q-92 0 -184 -15l123 742h829v-314h-469l-31 -170q137 0 241.5 -34.5t161 -86t93.5 -118t47 -117.5t10 -100q0 -209 -157.5 -349.5t-434.5 -140.5 q-229 0 -446 103z" />
<glyph unicode="6" horiz-adv-x="1280" d="M76 575q0 340 227 619q92 115 203 205h624q-106 -59 -165 -101q-43 -29 -90.5 -67.5t-122 -123.5t-119.5 -175q82 29 164 29q158 0 272 -89q174 -135 174 -370q0 -219 -151.5 -376t-421.5 -157q-260 0 -427 165t-167 441zM516 485q0 -98 44 -144t104 -46q63 0 104 52 t41 159q0 70 -32 130t-111 60q-63 0 -106.5 -48t-43.5 -163z" />
<glyph unicode="7" horiz-adv-x="1280" d="M137 1085v314h1084l-541 -1399h-463l418 1085h-498z" />
<glyph unicode="8" horiz-adv-x="1280" d="M61 385q0 145 83 231t202 117q-78 23 -132 65t-75.5 92t-29 84t-7.5 68q0 166 141.5 277t401.5 111q252 0 393.5 -108t141.5 -282q0 -139 -79 -214t-165 -93q41 -10 83 -30.5t90 -58.5t79 -103.5t31 -149.5q0 -174 -149.5 -298t-428.5 -124q-109 0 -208 23.5t-184 72 t-136.5 131.5t-51.5 189zM487 436q0 -66 46.5 -105.5t111.5 -39.5q80 0 116 48t36 101q0 63 -43 107.5t-109 44.5q-68 0 -113 -43t-45 -113zM512 975q0 -59 37 -93t94 -34t93 35t36 94t-33.5 95t-95 36t-96.5 -38t-35 -95z" />
<glyph unicode="9" horiz-adv-x="1280" d="M37 895q0 98 34.5 191.5t102.5 171t180.5 125t255.5 47.5q281 0 436.5 -176.5t155.5 -426.5q0 -104 -19.5 -201.5t-55 -175t-72.5 -141t-86 -119t-81 -87t-71 -65.5t-43 -38h-627q186 100 302 209q127 121 198 258q-82 -29 -164 -29q-186 0 -316 128t-130 329zM471 893 q0 -37 7 -74t42 -77t94 -40q148 0 148 211q0 98 -43 144.5t-103 46.5q-78 0 -111.5 -63.5t-33.5 -147.5z" />
<glyph unicode=":" horiz-adv-x="598" d="M100 184q0 84 56.5 141.5t140.5 57.5q88 0 146.5 -57.5t58.5 -145.5q0 -84 -57.5 -141t-143.5 -57q-84 0 -142.5 58t-58.5 144zM100 831q0 84 56.5 141.5t140.5 57.5q88 0 146.5 -57.5t58.5 -145.5q0 -84 -57.5 -141t-143.5 -57q-84 0 -142.5 58t-58.5 144z" />
<glyph unicode=";" horiz-adv-x="598" d="M-96 -293l235 637h369l-369 -637h-235zM133 829q0 86 58.5 143.5t142.5 57.5q88 0 144.5 -58.5t56.5 -144.5q0 -84 -57.5 -141t-143.5 -57q-84 0 -142.5 57t-58.5 143z" />
<glyph unicode="&#x3c;" horiz-adv-x="1482" d="M229 528v367l953 442v-376l-582 -236l582 -254v-397z" />
<glyph unicode="=" horiz-adv-x="1482" d="M205 225v344h1075v-344h-1075zM205 723v342h1075v-342h-1075z" />
<glyph unicode="&#x3e;" horiz-adv-x="1482" d="M289 74v377l581 235l-581 254v397l950 -454v-367z" />
<glyph unicode="?" horiz-adv-x="894" d="M37 1028v350q190 98 391 99q281 0 399 -177q63 -98 64 -210q0 -131 -78 -225.5t-217 -110.5v-174l-367 -150v485q98 0 176 30t78 102q0 41 -35.5 75.5t-105.5 34.5q-150 0 -305 -129zM211 182q0 84 56.5 142.5t140.5 58.5q88 0 146 -57.5t58 -145.5q0 -86 -57 -142 t-143 -56q-88 0 -144.5 59t-56.5 141z" />
<glyph unicode="@" horiz-adv-x="1740" d="M63 526q0 403 267.5 668.5t675.5 265.5q309 0 488 -165t179 -449q0 -281 -152.5 -488.5t-359.5 -207.5q-172 0 -209 174l-143 -172h-45q-143 0 -226 95t-83 261q0 240 148.5 401.5t369.5 161.5q174 0 348 -74l-76 -348q-39 -172 -39 -227q0 -53 37 -53q29 0 66 47 q63 82 101 195.5t38 226.5q0 207 -125 321.5t-350 114.5q-293 0 -487.5 -210t-194.5 -525q0 -272 171 -433t458 -161q195 0 370.5 64.5t302.5 183.5l-80 -289q-100 -51 -170 -78q-211 -80 -450 -80q-377 0 -603.5 213t-226.5 567zM717 504q0 -76 30.5 -121t83.5 -45 q31 0 49.5 9t63.5 44l96 471q-49 16 -84 17q-102 0 -170.5 -106.5t-68.5 -268.5z" />
<glyph unicode="A" horiz-adv-x="1579" d="M0 0l567 1446h451l561 -1446h-485l-76 238h-477l-84 -238h-457zM629 494h303l-148 458z" />
<glyph unicode="B" horiz-adv-x="1366" d="M90 0v1446h664q115 0 193.5 -14.5t152.5 -65.5q170 -111 170 -315q0 -104 -52.5 -182t-134.5 -119q233 -121 234 -338q0 -45 -11.5 -93.5t-45 -107.5t-87 -104.5t-147.5 -76t-217 -30.5h-719zM528 315h117q221 0 221 152q0 154 -231 154h-107v-306zM528 653l158 224h23 q61 2 104 30.5t43 89.5q0 57 -36 88t-70.5 36t-90.5 5h-131v-473z" />
<glyph unicode="C" horiz-adv-x="1366" d="M47 702q0 186 78 347q29 61 68.5 116.5t108.5 115.5t152 103t203.5 72t260.5 29q154 0 380 -51v-379q-143 102 -317 102q-123 0 -217 -43q-117 -53 -180.5 -160.5t-63.5 -236.5q0 -207 140.5 -324t343.5 -117q184 0 362 82l-209 -358q-117 -37 -289 -37 q-352 0 -586.5 202t-234.5 537z" />
<glyph unicode="D" horiz-adv-x="1536" d="M88 0v1446h668q432 0 612 -281q119 -176 119 -426q0 -59 -8.5 -120.5t-30 -136t-56 -140.5t-94 -130.5t-135.5 -110.5t-185.5 -73.5t-240.5 -27.5h-649zM539 336h71q92 0 150.5 15.5t118.5 64.5q125 106 125 311q0 154 -86 264q-92 119 -265 119h-114v-774z" />
<glyph unicode="E" horiz-adv-x="1193" d="M90 0v1446h987v-344h-530v-197h452v-340h-452v-219h647l-195 -346h-909z" />
<glyph unicode="F" horiz-adv-x="1110" d="M90 0v1446h1020v-342h-557v-244h469v-342h-469v-518h-463z" />
<glyph unicode="G" horiz-adv-x="1622" d="M47 713q0 141 51.5 273t154.5 246t280.5 182.5t406.5 68.5q222 0 490 -72v-381q-170 131 -431 131q-66 0 -131 -15.5t-128.5 -50t-112.5 -86t-80 -127t-31 -167.5q0 -80 24.5 -156t74 -142.5t136.5 -107.5t199 -41q86 0 166 27v229h-315l166 305h573v-723 q-352 -143 -657 -143q-119 0 -232.5 23.5t-224.5 80t-193.5 139.5t-134 214t-51.5 293z" />
<glyph unicode="H" horiz-adv-x="1536" d="M90 0v1446h459v-516h436v516h461v-1446h-461v584h-436v-584h-459z" />
<glyph unicode="I" horiz-adv-x="641" d="M90 0v1446h461v-1446h-461z" />
<glyph unicode="J" horiz-adv-x="1024" d="M0 23l180 319q59 -33 131 -33q115 0 150 99q16 47 16 157v881h457v-916q0 -139 -24.5 -231t-100.5 -170q-162 -166 -457 -166q-184 1 -352 60z" />
<glyph unicode="K" horiz-adv-x="1536" d="M90 0v1446h459v-653l428 653h510l-455 -653l535 -793h-525l-493 739v-739h-459z" />
<glyph unicode="L" horiz-adv-x="1193" d="M86 0v1446h463v-1096h645l-203 -350h-905z" />
<glyph unicode="M" horiz-adv-x="1921" d="M31 0l162 1446h456l305 -715l316 715h454l166 -1446h-450l-58 811l-405 -811h-49l-393 811l-58 -811h-446z" />
<glyph unicode="N" horiz-adv-x="1622" d="M90 0v1446h371l620 -680v680h451v-1446h-313l-678 713v-713h-451z" />
<glyph unicode="O" horiz-adv-x="1705" d="M47 727q0 334 220 545t591 211q190 0 345 -61.5t253 -166t150.5 -238.5t52.5 -283.5t-51.5 -286t-146.5 -246t-249.5 -174t-345.5 -64.5q-385 0 -602 212t-217 552zM528 727q0 -193 89.5 -305.5t236.5 -112.5q158 0 241 123t83 289q0 182 -82 303t-238 121 q-150 0 -240 -115t-90 -303z" />
<glyph unicode="P" horiz-adv-x="1366" d="M90 0v1446h680q328 0 465 -180q88 -115 88 -267q0 -215 -152.5 -328.5t-367.5 -113.5h-254v-557h-459zM549 594l170 248q70 0 109.5 39t39.5 100q0 59 -35.5 94t-70.5 43t-68 8h-145v-532z" />
<glyph unicode="Q" horiz-adv-x="1705" d="M47 725q0 328 223.5 543t589.5 215q365 0 582 -213t217 -543q0 -268 -150 -463l191 -192l-279 -283l-231 236q-133 -61 -328 -62q-193 0 -350.5 62.5t-257.5 169t-153.5 242.5t-53.5 288zM537 727q0 -201 91 -309.5t228 -108.5q154 0 238 123t84 289q0 193 -85 308.5 t-231 115.5q-141 0 -233 -110.5t-92 -307.5z" />
<glyph unicode="R" horiz-adv-x="1492" d="M90 0v1446h713q160 0 250 -31t164 -112q98 -106 98 -265q0 -111 -60.5 -212t-154.5 -150l411 -676h-495l-359 600h-118v-600h-449zM539 635l163 235q166 0 166 134q0 27 -9 51t-47 48.5t-101 24.5h-172v-493z" />
<glyph unicode="S" horiz-adv-x="1150" d="M84 55v377q61 -49 173 -98t228 -49q18 0 40 3t54.5 14t53 40t20.5 72q0 53 -30.5 79.5t-85.5 49.5l-111 43q-340 133 -340 426q0 182 127 313q152 158 430 158q201 0 395 -88v-361q-158 133 -342 133q-68 0 -114.5 -29.5t-46.5 -93.5q0 -49 35.5 -76.5t121.5 -62.5 l111 -45q141 -57 223 -152.5t82 -265.5q0 -125 -53.5 -221t-140.5 -150.5t-181 -81t-190 -26.5q-246 0 -459 92z" />
<glyph unicode="T" d="M-2 1100v346h1241v-346h-387v-1100h-459v1100h-395z" />
<glyph unicode="U" horiz-adv-x="1579" d="M90 539v907h457v-817q0 -59 3 -99.5t17.5 -89.5t40 -77.5t73.5 -49t116 -20.5q236 0 235 278v875h457v-856q0 -98 -11.5 -174t-53.5 -166t-114.5 -148.5t-207.5 -98.5t-320 -40q-315 0 -503.5 139.5t-188.5 436.5z" />
<glyph unicode="V" horiz-adv-x="1579" d="M0 1446h502l301 -893l307 893h469l-592 -1446h-403z" />
<glyph unicode="W" horiz-adv-x="2091" d="M0 1446h487l144 -832l403 832h53l394 -832l155 832h455l-328 -1446h-411l-297 653l-287 -653h-412z" />
<glyph unicode="X" horiz-adv-x="1492" d="M0 0l498 756l-455 690h510l203 -311l194 311h514l-460 -690l489 -756h-516l-234 369l-245 -369h-498z" />
<glyph unicode="Y" horiz-adv-x="1492" d="M0 1446h516l244 -492l248 492h485l-516 -928v-518h-461v518z" />
<glyph unicode="Z" horiz-adv-x="1409" d="M51 0v338l674 760h-623v348h1207v-346l-668 -752h768l-203 -348h-1155z" />
<glyph unicode="[" horiz-adv-x="663" d="M113 -295v1868h536v-273h-174v-1323h174v-272h-536z" />
<glyph unicode="\" horiz-adv-x="894" d="M6 1446h373l512 -1446h-381z" />
<glyph unicode="]" horiz-adv-x="663" d="M14 -25h174v1323h-174v275h537v-1868h-537v270z" />
<glyph unicode="^" horiz-adv-x="1482" d="M115 571l446 875h377l432 -875h-428l-205 506l-221 -506h-401z" />
<glyph unicode="_" horiz-adv-x="1024" d="M-20 -231h1064v-261h-1064v261z" />
<glyph unicode="`" horiz-adv-x="641" d="M82 1397v313l477 -340v-283z" />
<glyph unicode="a" horiz-adv-x="1110" d="M12 297q0 61 21.5 116.5t71 110t147.5 86t235 31.5q86 0 166 -14q0 18 -6 38.5t-24.5 53.5t-68.5 54.5t-126 21.5q-125 0 -330 -86l172 295q123 32 295 32h10q41 0 81 -3t113 -23.5t124 -56t91 -108.5t40 -171v-674h-371v162l-151 -180q-43 -6 -103 -7q-170 0 -278.5 82 t-108.5 240zM383 311q0 -55 44 -79.5t101 -24.5h5q57 0 120 22v191q-55 10 -90 10q-180 0 -180 -119z" />
<glyph unicode="b" d="M84 98v1348h401v-668l168 248q72 10 105 10q205 0 322.5 -142t117.5 -351q0 -248 -160 -410q-154 -158 -436 -158q-238 0 -518 123zM485 287q53 -33 111 -33q102 0 148.5 81t46.5 187q0 119 -54.5 180.5t-124.5 61.5q-72 0 -127 -41v-436z" />
<glyph unicode="c" horiz-adv-x="980" d="M39 510q0 135 59.5 252t196.5 196.5t332 79.5q172 0 311 -61v-318q-102 106 -238 107q-111 0 -180 -72.5t-69 -183.5q0 -109 71.5 -193t218.5 -84q86 0 240 52l-158 -279q-117 -31 -231 -31q-246 0 -399.5 150.5t-153.5 384.5z" />
<glyph unicode="d" d="M39 500q0 90 26.5 180t79 172t144.5 133t209 51q137 0 254 -82v492h401v-1446h-401v229l-162 -229q-74 -25 -139 -25q-186 0 -299 149.5t-113 375.5zM449 494q0 -111 50 -180.5t138 -69.5q60 0 115 41v428q-76 47 -121 47q-82 0 -132 -68.5t-50 -197.5z" />
<glyph unicode="e" horiz-adv-x="1193" d="M39 504q0 92 26.5 177t86 169t180.5 135t286 51q109 0 202 -27.5t176 -90t131.5 -178t48.5 -273.5v-39h-713q59 -201 330 -201q190 0 348 74l-168 -293q-152 -33 -326 -33q-369 0 -524 232q-84 129 -84 297zM449 625h352q-12 74 -15 80q-43 110 -157 110h-2 q-61 0 -113.5 -44t-64.5 -146z" />
<glyph unicode="f" horiz-adv-x="768" d="M-49 733l135 279h23v39q0 197 110 311q121 121 356 121q109 0 222 -29v-285q-57 29 -125 29t-115 -39t-47 -119v-28h227v-279h-227v-733h-401v733h-158z" />
<glyph unicode="g" d="M39 492q0 150 58.5 261t154.5 169.5t196.5 86t206.5 27.5h4q244 0 494 -108v-766q0 -281 -171 -432.5t-456 -151.5q-203 0 -430 68v334q172 -129 383 -130q133 0 207 73t74 206v158l-170 -238q-35 -10 -82 -10q-213 0 -341 121t-128 332zM449 530q0 -84 46 -152.5 t140 -68.5q53 0 125 33v385q-45 29 -113 29q-96 0 -147 -63.5t-51 -162.5z" />
<glyph unicode="h" d="M84 0v1446h403v-686l162 258q113 20 170 20q334 0 334 -329v-709h-387v526q0 113 -30.5 171.5t-110.5 58.5q-61 0 -138 -56v-700h-403z" />
<glyph unicode="i" horiz-adv-x="555" d="M78 0v1012h397v-1012h-397zM88 1321q0 78 53.5 132t130.5 54q82 0 138.5 -54t56.5 -136q0 -80 -54.5 -133.5t-134 -53.5t-135 54.5t-55.5 136.5z" />
<glyph unicode="j" horiz-adv-x="555" d="M80 -416v1428h395v-1205zM88 1321q0 78 53.5 132t130.5 54q82 0 138.5 -54t56.5 -136q0 -80 -54.5 -133.5t-134 -53.5t-135 54.5t-55.5 136.5z" />
<glyph unicode="k" d="M84 0v1446h405v-854l299 420h443l-320 -451l357 -561h-459l-320 524v-524h-405z" />
<glyph unicode="l" horiz-adv-x="555" d="M76 0v1446h401v-1446h-401z" />
<glyph unicode="m" horiz-adv-x="1961" d="M84 0v1012h401v-238l168 232q95 32 189 32h6q301 0 334 -264l168 232q95 32 196 32h6q29 0 58.5 -3t82 -19.5t90.5 -45t66.5 -88t28.5 -141.5v-741h-401v553q0 203 -156 203q-61 0 -139 -47v-709h-402v543q0 102 -29.5 156.5t-119.5 54.5q-72 0 -146 -45v-709h-401z" />
<glyph unicode="n" d="M84 0v1012h389v-256l186 254q79 26 164 26h6q160 0 242 -88t82 -248v-700h-389v549q0 201 -158 201q-66 0 -133 -58v-692h-389z" />
<glyph unicode="o" d="M39 506q0 176 87 300t215 177t284 53q258 0 415.5 -140t157.5 -376q0 -248 -151.5 -396.5t-436.5 -148.5q-268 0 -419.5 147.5t-151.5 383.5zM455 510q0 -272 166 -272q161 0 161 271t-161 271q-166 0 -166 -270z" />
<glyph unicode="p" d="M84 -428v1440h403v-230l158 230q55 24 129 24h6q188 0 303 -139t115 -379q0 -225 -111 -368q-76 -100 -174 -137.5t-176 -37.5q-131 0 -250 80v-483h-403zM487 307l13 -10q14 -10 22 -14t22.5 -12.5t31 -11.5t34.5 -3q59 0 100.5 36t56.5 89t19.5 84t4.5 51 q0 29 -5.5 61.5t-23 81t-59 79t-103.5 30.5q-58 0 -113 -33v-428z" />
<glyph unicode="q" d="M39 471q0 242 151 399q158 166 439 166q248 0 524 -121v-1343h-401v657l-166 -239q-86 -14 -119 -15q-100 0 -191 48q-80 41 -132 107.5t-72.5 139t-26.5 116.5t-6 85zM446 500q0 -121 52.5 -187.5t132.5 -66.5q47 0 121 43v434q-57 35 -109 35q-100 0 -148.5 -76 t-48.5 -182z" />
<glyph unicode="r" horiz-adv-x="854" d="M84 0v1012h401v-232l158 232q85 24 200 24h9v-393q-125 111 -246 111q-66 0 -121 -35v-719h-401z" />
<glyph unicode="s" horiz-adv-x="894" d="M53 711q0 47 19.5 97t61.5 104.5t130 89t207 34.5q174 0 344 -75v-289q-31 37 -101.5 79t-158.5 42q-49 0 -75.5 -25t-26.5 -55q0 -53 100 -92l119 -46q84 -31 144.5 -97t60.5 -171q0 -98 -62 -180q-115 -152 -371 -152q-223 0 -381 80v291l19 -12q20 -12 37.5 -23.5 t47.5 -27t58.5 -25.5t63.5 -18.5t65 -8.5q51 0 83 26t32 58q0 55 -107 93l-102 34q-207 72 -207 269z" />
<glyph unicode="t" horiz-adv-x="768" d="M-53 733l133 279h29v176l389 121v-297h237v-279h-237v-280q0 -31 2 -50.5t11 -51.5t25.5 -51t51.5 -34.5t84 -15.5q43 0 139 22l-190 -274q-86 -23 -181 -23q-109 0 -181.5 36t-102 95.5t-38.5 102.5t-9 92v432h-162z" />
<glyph unicode="u" d="M84 317v695h393v-582q0 -166 133 -166q59 0 154 60v688h389v-1012h-389v258l-182 -254q-92 -29 -166 -29q-29 0 -58.5 3.5t-83 22.5t-92.5 52t-68.5 101.5t-29.5 162.5z" />
<glyph unicode="v" horiz-adv-x="1193" d="M0 1012h436l168 -650l168 650h422l-375 -1012h-442z" />
<glyph unicode="w" horiz-adv-x="1748" d="M0 1012h414l102 -639l191 639h354l164 -639l129 639h395l-258 -1012h-449l-170 547l-165 -547h-453z" />
<glyph unicode="x" horiz-adv-x="1193" d="M0 0l350 535l-323 477h430l147 -242l148 242h409l-317 -477l350 -535h-438l-162 262l-158 -262h-436z" />
<glyph unicode="y" horiz-adv-x="1193" d="M0 1012h416l192 -662l191 662h395l-369 -963q-74 -199 -155 -287q-151 -165 -463 -165h-4q-102 0 -185 18l101 270q29 -14 67 -14q51 0 110.5 31.5t84.5 109.5z" />
<glyph unicode="z" horiz-adv-x="1110" d="M66 0v281l456 444h-428v287h940v-287l-448 -438h524l-164 -287h-880z" />
<glyph unicode="{" horiz-adv-x="712" d="M12 522v234q76 8 110 22.5t51 58.5t17 132v268q0 193 60.5 264.5t251.5 71.5h196v-234h-41q-70 0 -88 -46t-18 -171v-215q0 -123 -35 -178t-135 -92q94 -29 132 -88.5t38 -181.5v-232q0 -72 5 -107.5t31.5 -64.5t82.5 -29h28v-231h-180q-195 0 -261.5 63.5t-66.5 262.5 v280q0 125 -32.5 163t-145.5 50z" />
<glyph unicode="|" horiz-adv-x="598" d="M119 -295v1868h362v-1868h-362z" />
<glyph unicode="}" horiz-adv-x="712" d="M14 -63h41q70 0 88.5 46t18.5 171v215q0 123 34.5 178t135.5 92q-94 29 -132 88t-38 182v232q0 72 -5 107.5t-32 64t-82 28.5h-29v232h181q195 0 261 -63.5t66 -262.5v-280q0 -125 33 -163t145 -50v-234q-76 -8 -109.5 -22.5t-51 -58.5t-17.5 -132v-268 q0 -193 -60.5 -264.5t-250.5 -71.5h-197v234z" />
<glyph unicode="~" horiz-adv-x="1482" d="M176 422v399q119 139 273 140q96 0 239 -68l127 -59q111 -51 197 -52q68 0 130.5 41.5t162.5 143.5v-398q-90 -86 -158 -119.5t-154 -33.5q-92 0 -254 78l-71 34q-133 63 -211 64q-74 0 -137.5 -39t-143.5 -131z" />
<glyph unicode="&#xa1;" horiz-adv-x="598" d="M104 0l35 866l330 146q31 -791 37 -1012h-402zM104 1266q0 84 55.5 141t143.5 57q90 0 146.5 -59t56.5 -141q0 -80 -55.5 -140.5t-145.5 -60.5q-92 0 -146.5 60.5t-54.5 142.5z" />
<glyph unicode="&#xa2;" horiz-adv-x="1107" d="M98 506q0 182 101.5 327.5t304.5 188.5v293h287v-275q125 -10 225 -61v-326q-106 106 -264 107q-100 0 -172 -65.5t-72 -180.5q0 -131 84 -196.5t211 -65.5q123 0 262 53l-162 -295q-35 -12 -112 -20v-277h-287v291q-193 41 -299.5 182.5t-106.5 319.5z" />
<glyph unicode="&#xa3;" horiz-adv-x="1413" d="M74 557v272h252v37q0 315 221 463q150 100 375 101q180 0 327 -56v-356q-121 90 -245 90q-135 0 -200 -69.5t-65 -176.5v-33h351v-272h-351v-240h680l-184 -317h-1094l185 317v240h-252z" />
<glyph unicode="&#xa4;" horiz-adv-x="1433" d="M45 219l168 168q-90 133 -90 303q0 164 88 314l-164 163l195 195l164 -164q137 88 313 88q158 0 305 -88l166 166l196 -197l-165 -163q86 -145 86 -308q0 -164 -88 -313l165 -168l-196 -195l-166 168q-147 -86 -305 -86q-168 0 -311 91l-166 -168zM446 694.5 q0 -114.5 78 -193.5t193 -79q113 0 190.5 78.5t77.5 191.5q0 117 -78 197t-190.5 80t-191.5 -80t-79 -194.5z" />
<glyph unicode="&#xa5;" horiz-adv-x="1509" d="M29 1399h512l227 -436l229 436h484l-316 -551h170v-205h-286l-64 -111h350v-200h-350v-332h-461v332h-379v200h379l-63 111h-316v205h199z" />
<glyph unicode="&#xa6;" horiz-adv-x="600" d="M119 -297v801h362v-801h-362zM119 770v801h362v-801h-362z" />
<glyph unicode="&#xa7;" horiz-adv-x="1067" d="M27 494q0 109 60 209t177 151q-113 119 -112 258q0 33 8 71t36.5 94t75.5 99t137.5 75t206.5 32q164 0 351 -72v-369q-113 127 -258 127q-49 0 -83 -26.5t-34 -71.5q0 -68 96 -115l94 -47q258 -129 258 -352t-223 -354q98 -113 98 -238q0 -174 -135 -291 q-127 -109 -329 -108q-191 0 -361 76v368q143 -125 264 -125q49 0 87 29t38 78q0 41 -24.5 65.5t-71.5 44.5l-55 25q-150 66 -225.5 145.5t-75.5 221.5zM399 553q0 -49 38 -94t72 -64.5t52 -25.5q39 29 68.5 73.5t29.5 87.5q0 23 -7 44.5t-21.5 38t-28.5 29.5t-32.5 24.5 t-31 17.5t-25.5 12t-15 6q-98 -59 -99 -149z" />
<glyph unicode="&#xa8;" horiz-adv-x="641" d="M-57 1341q0 66 45 114t114 48q72 0 118 -46t46 -115.5t-48 -115.5t-116 -46q-70 0 -114.5 45.5t-44.5 115.5zM373 1341q0 66 45 114t114 48q72 0 118 -46t46 -115.5t-48 -115.5t-116 -46q-70 0 -114.5 45.5t-44.5 115.5z" />
<glyph unicode="&#xa9;" horiz-adv-x="1705" d="M125 727q0 303 212 514t517 211t517 -212t212 -521q0 -305 -214 -515t-517 -210q-305 0 -516 213t-211 520zM225 721q0 -266 183.5 -453.5t443.5 -187.5t443.5 187.5t183.5 451.5q0 272 -180.5 459.5t-444.5 187.5q-262 0 -445.5 -188.5t-183.5 -456.5zM438 727 q0 209 135.5 338t352.5 129q148 0 254 -55v-277q-94 92 -193 92q-96 0 -158.5 -64.5t-62.5 -164.5q0 -109 70.5 -175.5t183.5 -66.5q80 0 192 45l-129 -245q-96 -27 -186 -27q-203 0 -331 132t-128 339z" />
<glyph unicode="&#xaa;" horiz-adv-x="724" d="M18 985q0 102 80 161.5t230 59.5q33 0 106 -8q-12 106 -147 107q-78 0 -213 -56l110 191q90 23 195 22q29 0 55.5 -2t73.5 -15t81 -37t59.5 -71t25.5 -112v-432h-240v104l-96 -117q-33 -4 -66 -4q-133 0 -193.5 61.5t-60.5 147.5zM258 993q0 -68 98 -67q39 0 78 14v123 q-25 6 -57 6q-119 0 -119 -76z" />
<glyph unicode="&#xab;" horiz-adv-x="1067" d="M0 549l221 319h338l-221 -319l221 -324h-338zM508 549l221 319h338l-223 -319l223 -324h-338z" />
<glyph unicode="&#xac;" horiz-adv-x="1482" d="M137 518v324h1159v-779h-409v455h-750z" />
<glyph unicode="&#xad;" horiz-adv-x="854" d="M0 412l184 266h670l-184 -266h-670z" />
<glyph unicode="&#xae;" horiz-adv-x="1705" d="M125 727q0 303 212 514t517 211t517 -212t212 -521q0 -305 -214 -515t-517 -210q-305 0 -516 213t-211 520zM225 721q0 -266 183.5 -453.5t443.5 -187.5t443.5 187.5t183.5 451.5q0 272 -180.5 459.5t-444.5 187.5q-262 0 -445.5 -188.5t-183.5 -456.5zM502 283v897h299 q168 0 256 -29q80 -27 127 -96.5t47 -163.5q0 -162 -137 -242l198 -366h-301l-160 350h-59v-350h-270zM770 676l90 123q109 0 109 94q0 92 -123 92h-76v-309z" />
<glyph unicode="&#xaf;" horiz-adv-x="641" d="M-10 1214v248h663v-248h-663z" />
<glyph unicode="&#xb0;" horiz-adv-x="724" d="M10 1174q0 147 102.5 249.5t249.5 102.5q145 0 249 -104.5t104 -247.5q0 -158 -105.5 -256.5t-247.5 -98.5q-51 0 -108 20.5t-113.5 61.5t-93.5 111.5t-37 161.5zM250 1177.5q0 -47.5 33.5 -81t81 -33.5t80 33.5t32.5 81t-33.5 80t-81 32.5t-80 -32.5t-32.5 -80z" />
<glyph unicode="&#xb1;" horiz-adv-x="1482" d="M186 0v315h1108v-315h-1108zM186 784v312h351v350h409v-350h350v-312h-350v-364h-409v364h-351z" />
<glyph unicode="&#xb2;" horiz-adv-x="854" d="M102 494v208l222 238q90 96 90 152q0 90 -97 90q-100 0 -194 -95v259q2 0 28.5 11t39 16t43 14.5t53 14.5t55.5 9t64 4q96 0 165.5 -27.5t102.5 -72.5t46 -87t13 -87q0 -133 -110 -252l-158 -170h373l-164 -225h-572z" />
<glyph unicode="&#xb3;" horiz-adv-x="854" d="M117 532v267q115 -96 223 -97q41 0 69.5 19.5t28.5 56.5q0 80 -137 80q-63 0 -88 -2l125 197q72 12 72 65q0 63 -86 64q-90 0 -187 -82v248q127 68 271 67q158 0 233.5 -72.5t75.5 -171.5q0 -133 -137 -194q90 -16 139 -72.5t49 -138.5q0 -145 -104.5 -217t-245.5 -72 q-176 0 -301 55z" />
<glyph unicode="&#xb4;" horiz-adv-x="641" d="M82 1092v274l477 344v-311z" />
<glyph unicode="&#xb6;" horiz-adv-x="1304" d="M127 1006q0 207 135 329q68 63 147.5 87t227.5 24h502v-197h-74v-1591h-209v1591h-203v-1591h-211v940q-315 82 -315 408z" />
<glyph unicode="&#xb7;" horiz-adv-x="512" d="M55 567q0 86 57.5 143.5t143.5 57.5t143.5 -57.5t57.5 -143.5t-56.5 -143t-144.5 -57q-84 0 -142.5 58t-58.5 142z" />
<glyph unicode="&#xb8;" horiz-adv-x="641" d="M111 -367q150 10 149 97q0 41 -27.5 64.5t-66.5 27.5l98 209h180l-65 -127q76 -16 117 -67.5t41 -121.5q0 -113 -106.5 -186.5t-319.5 -75.5v180z" />
<glyph unicode="&#xb9;" horiz-adv-x="854" d="M154 1008v223l469 178v-915h-301v573z" />
<glyph unicode="&#xba;" horiz-adv-x="811" d="M31 1120q0 147 102.5 244.5t276.5 97.5q164 0 267 -91t103 -245q0 -59 -17.5 -115.5t-56 -111.5t-117.5 -89t-188 -34q-188 0 -279 102.5t-91 241.5zM301 1124q0 -178 107 -178q104 0 104 178q0 172 -104 172q-107 0 -107 -172z" />
<glyph unicode="&#xbb;" horiz-adv-x="1067" d="M0 225l221 320l-221 323h338l221 -323l-221 -320h-338zM508 225l221 320l-221 323h338l221 -323l-221 -320h-338z" />
<glyph unicode="&#xbc;" horiz-adv-x="1978" d="M135 1008v223l469 178v-915h-301v573zM449 0l751 1399h258l-753 -1399h-256zM1112 182v148l322 575h350v-514h160l-121 -209h-39v-182h-273v182h-399zM1362 391h149l2 301z" />
<glyph unicode="&#xbd;" horiz-adv-x="1978" d="M111 1008v223l469 178v-915h-301v573zM428 0l754 1399h256l-752 -1399h-258zM1219 0v209l221 237q90 96 90 152q0 90 -96 90q-100 0 -195 -94v258q2 0 28.5 11t39 16.5t43 14.5t53 14t55.5 9.5t64 4.5q96 0 165.5 -28t102.5 -73t46 -87t13 -87q0 -131 -110 -252 l-158 -170h373l-164 -225h-571z" />
<glyph unicode="&#xbe;" horiz-adv-x="1978" d="M117 532v267q115 -96 223 -97q41 0 69.5 19.5t28.5 56.5q0 80 -137 80q-63 0 -88 -2l125 197q72 12 72 65q0 63 -86 64q-90 0 -187 -82v248q127 68 271 67q158 0 233.5 -72.5t75.5 -171.5q0 -133 -137 -194q90 -16 139 -72.5t49 -138.5q0 -145 -104.5 -217t-245.5 -72 q-176 0 -301 55zM502 0l753 1399h256l-751 -1399h-258zM1133 182v148l321 575h350v-514h160l-121 -209h-39v-182h-272v182h-399zM1382 391h150l2 301z" />
<glyph unicode="&#xbf;" horiz-adv-x="894" d="M6 356q0 131 78 225.5t217 110.5v174l367 150v-486q-98 0 -176 -29.5t-78 -101.5q0 -41 35.5 -75.5t105.5 -34.5q150 0 305 129v-350q-190 -98 -391 -99q-281 0 -399 176q-63 98 -64 211zM283 1266q0 86 57 142t143 56q88 0 144.5 -59t56.5 -141q0 -84 -56.5 -142.5 t-140.5 -58.5q-88 0 -146 57.5t-58 145.5z" />
<glyph unicode="&#xc0;" horiz-adv-x="1579" d="M0 0l567 1446h451l561 -1446h-485l-76 238h-477l-84 -238h-457zM498 1741v282l575 -262v-239zM629 494h303l-148 458z" />
<glyph unicode="&#xc1;" horiz-adv-x="1579" d="M0 0l567 1446h451l561 -1446h-485l-76 238h-477l-84 -238h-457zM565 1522v239l576 262v-282zM629 494h303l-148 458z" />
<glyph unicode="&#xc2;" horiz-adv-x="1579" d="M0 0l567 1446h451l561 -1446h-485l-76 238h-477l-84 -238h-457zM432 1520v235l350 213l357 -213v-235l-357 170zM629 494h303l-148 458z" />
<glyph unicode="&#xc3;" horiz-adv-x="1579" d="M0 0l567 1446h451l561 -1446h-485l-76 238h-477l-84 -238h-457zM436 1573v221q80 111 205 111q59 0 166 -41q115 -43 156 -43q106 0 188 96v-236q-74 -102 -193 -102q-55 0 -204 49q-88 29 -127 29q-102 0 -191 -84zM629 494h303l-148 458z" />
<glyph unicode="&#xc4;" horiz-adv-x="1579" d="M0 0l567 1446h451l561 -1446h-485l-76 238h-477l-84 -238h-457zM393 1731q0 68 47 119t117 51q72 0 119 -48.5t47 -122t-48 -121.5t-118 -48t-117 49t-47 121zM629 494h303l-148 458zM848 1731q0 68 46 119t116 51q72 0 120 -48.5t48 -122t-49.5 -121.5t-119 -48 t-115.5 49t-46 121z" />
<glyph unicode="&#xc5;" horiz-adv-x="1579" d="M0 0l567 1446h451l561 -1446h-485l-76 238h-477l-84 -238h-457zM547 1765q0 100 70.5 169t173.5 69q104 0 174.5 -69t70.5 -169q0 -104 -69.5 -171.5t-176 -67.5t-175 67.5t-68.5 171.5zM629 494h303l-148 458zM702 1765q0 -41 25 -66.5t63.5 -25.5t63.5 25.5t25 66.5 t-24 65.5t-64 24.5q-39 0 -64 -25.5t-25 -64.5z" />
<glyph unicode="&#xc6;" horiz-adv-x="2260" d="M0 0l889 1446h1247v-342h-541v-197h461v-340h-461v-217h666l-205 -350h-901v305h-485l-181 -305h-489zM856 623h299v507z" />
<glyph unicode="&#xc7;" horiz-adv-x="1366" d="M47 702q0 186 78 347q29 61 68.5 116.5t108.5 115.5t152 103t203.5 72t260.5 29q154 0 380 -51v-379q-143 102 -317 102q-123 0 -217 -43q-117 -53 -180.5 -160.5t-63.5 -236.5q0 -207 140.5 -324t343.5 -117q184 0 362 82l-209 -358q-88 -27 -223 -35l-33 -67 q76 -18 117 -71.5t41 -127.5q0 -119 -107.5 -191.5t-330.5 -74.5v178q166 8 165 102q0 92 -108 99l76 157q-311 33 -509 229.5t-198 503.5z" />
<glyph unicode="&#xc8;" horiz-adv-x="1193" d="M90 0v1446h987v-344h-530v-197h452v-340h-452v-219h647l-195 -346h-909zM297 1741v282l575 -262v-239z" />
<glyph unicode="&#xc9;" horiz-adv-x="1193" d="M90 0v1446h987v-344h-530v-197h452v-340h-452v-219h647l-195 -346h-909zM379 1522v239l575 262v-282z" />
<glyph unicode="&#xca;" horiz-adv-x="1193" d="M90 0v1446h987v-344h-530v-197h452v-340h-452v-219h647l-195 -346h-909zM250 1520v235l350 213l356 -213v-235l-356 170z" />
<glyph unicode="&#xcb;" horiz-adv-x="1193" d="M90 0v1446h987v-344h-530v-197h452v-340h-452v-219h647l-195 -346h-909zM201 1731q0 68 47 119t117 51q72 0 118.5 -48.5t46.5 -122t-48 -121.5t-117.5 -48t-116.5 49t-47 121zM655 1731q0 68 46.5 119t115.5 51q72 0 120 -48.5t48 -122t-49 -121.5t-118.5 -48t-116 49 t-46.5 121z" />
<glyph unicode="&#xcc;" horiz-adv-x="641" d="M6 1741v282l576 -262v-239zM90 0v1446h461v-1446h-461z" />
<glyph unicode="&#xcd;" horiz-adv-x="641" d="M63 1522v239l576 262v-282zM90 0v1446h461v-1446h-461z" />
<glyph unicode="&#xce;" horiz-adv-x="641" d="M-31 1520v235l350 213l357 -213v-235l-357 170zM90 0v1446h461v-1446h-461z" />
<glyph unicode="&#xcf;" horiz-adv-x="641" d="M-74 1731q0 68 47 119t117 51q72 0 119 -48.5t47 -122t-48 -121.5t-118 -48t-117 49t-47 121zM90 0v1446h461v-1446h-461zM381 1731q0 68 46 119t116 51q72 0 120 -48.5t48 -122t-49.5 -121.5t-119 -48t-115.5 49t-46 121z" />
<glyph unicode="&#xd0;" horiz-adv-x="1536" d="M0 621v251h88v574h692q45 0 93.5 -4t133.5 -26.5t155.5 -60.5t145 -114t117.5 -180q61 -147 62 -322q0 -80 -14.5 -165t-63.5 -192.5t-127 -188t-219 -137t-326 -56.5h-649v621h-88zM539 336h71q123 0 181 24q92 39 152.5 131.5t60.5 225.5q0 131 -51.5 223t-131.5 133 q-70 37 -186 37h-96v-238h278v-251h-278v-285z" />
<glyph unicode="&#xd1;" horiz-adv-x="1622" d="M90 0v1446h371l620 -680v680h451v-1446h-313l-678 713v-713h-451zM463 1573v221q80 111 205 111q57 0 166 -41q115 -43 155 -43q107 0 189 96v-236q-74 -102 -193 -102q-55 0 -205 49q-88 29 -127 29q-102 0 -190 -84z" />
<glyph unicode="&#xd2;" horiz-adv-x="1705" d="M47 727q0 334 220 545t591 211q190 0 345 -61.5t253 -166t150.5 -238.5t52.5 -283.5t-51.5 -286t-146.5 -246t-249.5 -174t-345.5 -64.5q-385 0 -602 212t-217 552zM528 727q0 -193 89.5 -305.5t236.5 -112.5q158 0 241 123t83 289q0 182 -82 303t-238 121 q-150 0 -240 -115t-90 -303zM557 1741v282l576 -262v-239z" />
<glyph unicode="&#xd3;" horiz-adv-x="1705" d="M47 727q0 334 220 545t591 211q190 0 345 -61.5t253 -166t150.5 -238.5t52.5 -283.5t-51.5 -286t-146.5 -246t-249.5 -174t-345.5 -64.5q-385 0 -602 212t-217 552zM528 727q0 -193 89.5 -305.5t236.5 -112.5q158 0 241 123t83 289q0 182 -82 303t-238 121 q-150 0 -240 -115t-90 -303zM588 1522v239l575 262v-282z" />
<glyph unicode="&#xd4;" horiz-adv-x="1705" d="M47 727q0 334 220 545t591 211q190 0 345 -61.5t253 -166t150.5 -238.5t52.5 -283.5t-51.5 -286t-146.5 -246t-249.5 -174t-345.5 -64.5q-385 0 -602 212t-217 552zM500 1520v235l350 213l356 -213v-235l-356 170zM528 727q0 -193 89.5 -305.5t236.5 -112.5 q158 0 241 123t83 289q0 182 -82 303t-238 121q-150 0 -240 -115t-90 -303z" />
<glyph unicode="&#xd5;" horiz-adv-x="1705" d="M47 727q0 334 220 545t591 211q190 0 345 -61.5t253 -166t150.5 -238.5t52.5 -283.5t-51.5 -286t-146.5 -246t-249.5 -174t-345.5 -64.5q-385 0 -602 212t-217 552zM510 1573v221q80 111 205 111q59 0 166 -41q115 -43 155 -43q107 0 189 96v-236q-74 -102 -193 -102 q-55 0 -205 49q-88 29 -127 29q-102 0 -190 -84zM528 727q0 -193 89.5 -305.5t236.5 -112.5q158 0 241 123t83 289q0 182 -82 303t-238 121q-150 0 -240 -115t-90 -303z" />
<glyph unicode="&#xd6;" horiz-adv-x="1705" d="M47 727q0 334 220 545t591 211q190 0 345 -61.5t253 -166t150.5 -238.5t52.5 -283.5t-51.5 -286t-146.5 -246t-249.5 -174t-345.5 -64.5q-385 0 -602 212t-217 552zM465 1731q0 68 47 119t117 51q72 0 119 -48.5t47 -122t-48.5 -121.5t-118 -48t-116.5 49t-47 121z M528 727q0 -193 89.5 -305.5t236.5 -112.5q158 0 241 123t83 289q0 182 -82 303t-238 121q-150 0 -240 -115t-90 -303zM920 1731q0 68 46 119t115 51q72 0 120 -48.5t48 -122t-49 -121.5t-118.5 -48t-115.5 49t-46 121z" />
<glyph unicode="&#xd7;" horiz-adv-x="1482" d="M201 899l276 301l277 -254l237 258l246 -225l-238 -258l285 -262l-274 -301l-287 262l-236 -258l-245 225l237 258z" />
<glyph unicode="&#xd8;" horiz-adv-x="1705" d="M-33 61l226 211q-143 203 -144 453q0 311 197 518q229 240 616 240q289 0 481 -135l238 223l168 -187l-225 -213q135 -188 135 -436q0 -336 -225 -555q-223 -217 -576 -217q-121 0 -255 33t-230 104l-238 -225zM526 752q1 -64 17 -150l514 477q-2 0 -11.5 9.5t-17.5 15.5 t-25.5 15t-37 15.5t-47 11.5t-58.5 5q-133 0 -233.5 -104.5t-100.5 -294.5zM666 373q70 -70 186 -70q127 0 211 82q125 121 125 340q0 49 -12 121z" />
<glyph unicode="&#xd9;" horiz-adv-x="1579" d="M90 539v907h457v-817q0 -59 3 -99.5t17.5 -89.5t40 -77.5t73.5 -49t116 -20.5q236 0 235 278v875h457v-856q0 -98 -11.5 -174t-53.5 -166t-114.5 -148.5t-207.5 -98.5t-320 -40q-315 0 -503.5 139.5t-188.5 436.5zM477 1741v282l576 -262v-239z" />
<glyph unicode="&#xda;" horiz-adv-x="1579" d="M90 539v907h457v-817q0 -59 3 -99.5t17.5 -89.5t40 -77.5t73.5 -49t116 -20.5q236 0 235 278v875h457v-856q0 -98 -11.5 -174t-53.5 -166t-114.5 -148.5t-207.5 -98.5t-320 -40q-315 0 -503.5 139.5t-188.5 436.5zM588 1522v239l575 262v-282z" />
<glyph unicode="&#xdb;" horiz-adv-x="1579" d="M90 539v907h457v-817q0 -59 3 -99.5t17.5 -89.5t40 -77.5t73.5 -49t116 -20.5q236 0 235 278v875h457v-856q0 -98 -11.5 -174t-53.5 -166t-114.5 -148.5t-207.5 -98.5t-320 -40q-315 0 -503.5 139.5t-188.5 436.5zM438 1520v235l350 213l357 -213v-235l-357 170z" />
<glyph unicode="&#xdc;" horiz-adv-x="1579" d="M90 539v907h457v-817q0 -59 3 -99.5t17.5 -89.5t40 -77.5t73.5 -49t116 -20.5q236 0 235 278v875h457v-856q0 -98 -11.5 -174t-53.5 -166t-114.5 -148.5t-207.5 -98.5t-320 -40q-315 0 -503.5 139.5t-188.5 436.5zM403 1731q0 68 47.5 119t116.5 51q72 0 119 -48.5 t47 -122t-48 -121.5t-117.5 -48t-117 49t-47.5 121zM858 1731q0 68 46 119t116 51q72 0 120 -48.5t48 -122t-49 -121.5t-119 -48t-116 49t-46 121z" />
<glyph unicode="&#xdd;" horiz-adv-x="1492" d="M0 1446h516l244 -492l248 492h485l-516 -928v-518h-461v518zM604 1522v239l576 262v-282z" />
<glyph unicode="&#xde;" horiz-adv-x="1366" d="M90 0v1446h459v-258h199q76 0 127 -5t126.5 -22.5t138 -60.5t109.5 -113q74 -111 74 -244q0 -82 -28.5 -157.5t-89 -142t-169 -106.5t-254.5 -40h-233v-297h-459zM549 336l170 248q76 0 112.5 44t36.5 95q0 143 -190 143h-129v-530z" />
<glyph unicode="&#xdf;" horiz-adv-x="1323" d="M84 0v934q0 213 115 352q166 197 510 197q223 0 363 -102.5t140 -274.5q0 -129 -80.5 -207t-154.5 -102q23 -2 50.5 -10.5t76.5 -34t86 -63.5t65.5 -108.5t28.5 -160.5q0 -201 -127 -323t-330 -122q-111 0 -229 37v299q49 -35 115 -35q72 0 121 46.5t49 113.5 q0 80 -80 147.5t-215 67.5q-14 0 -31.5 -1t-21.5 -1l200 275q88 27 88 127q0 66 -46 110.5t-109 44.5q-37 0 -65 -8t-58.5 -34.5t-47 -87t-16.5 -152.5v-924h-397z" />
<glyph unicode="&#xe0;" horiz-adv-x="1110" d="M12 297q0 61 21.5 116.5t71 110t147.5 86t235 31.5q86 0 166 -14q0 18 -6 38.5t-24.5 53.5t-68.5 54.5t-126 21.5q-125 0 -330 -86l172 295q127 33 305 32q41 0 81 -3t113 -23.5t124 -56t91 -108.5t40 -171v-674h-371v162l-151 -180q-43 -6 -103 -7q-170 0 -278.5 82 t-108.5 240zM299 1397v313l477 -340v-283zM383 311q0 -55 44 -79.5t101 -24.5q59 -1 125 22v191q-55 10 -90 10q-180 0 -180 -119z" />
<glyph unicode="&#xe1;" horiz-adv-x="1110" d="M12 297q0 61 21.5 116.5t71 110t147.5 86t235 31.5q86 0 166 -14q0 18 -6 38.5t-24.5 53.5t-68.5 54.5t-126 21.5q-125 0 -330 -86l172 295q127 33 305 32q41 0 81 -3t113 -23.5t124 -56t91 -108.5t40 -171v-674h-371v162l-151 -180q-43 -6 -103 -7q-170 0 -278.5 82 t-108.5 240zM377 1092v274l477 344v-311zM383 311q0 -55 44 -79.5t101 -24.5q59 -1 125 22v191q-55 10 -90 10q-180 0 -180 -119z" />
<glyph unicode="&#xe2;" horiz-adv-x="1110" d="M12 297q0 61 21.5 116.5t71 110t147.5 86t235 31.5q86 0 166 -14q0 18 -6 38.5t-24.5 53.5t-68.5 54.5t-126 21.5q-125 0 -330 -86l172 295q127 33 305 32q41 0 81 -3t113 -23.5t124 -56t91 -108.5t40 -171v-674h-371v162l-151 -180q-43 -6 -103 -7q-170 0 -278.5 82 t-108.5 240zM242 1096v254l325 284l332 -278v-260l-332 239zM383 311q0 -55 44 -79.5t101 -24.5q59 -1 125 22v191q-55 10 -90 10q-180 0 -180 -119z" />
<glyph unicode="&#xe3;" horiz-adv-x="1110" d="M12 297q0 61 21.5 116.5t71 110t147.5 86t235 31.5q86 0 166 -14q0 18 -6 38.5t-24.5 53.5t-68.5 54.5t-126 21.5q-125 0 -330 -86l172 295q127 33 305 32q41 0 81 -3t113 -23.5t124 -56t91 -108.5t40 -171v-674h-371v162l-151 -180q-43 -6 -103 -7q-170 0 -278.5 82 t-108.5 240zM225 1165v228q25 31 41.5 49t59.5 38.5t94 20.5q55 0 157.5 -41t147.5 -41q104 0 178 94v-239q-68 -102 -182 -103q-51 0 -195 50q-84 29 -120 28q-96 0 -181 -84zM383 311q0 -55 44 -79.5t101 -24.5q59 -1 125 22v191q-55 10 -90 10q-180 0 -180 -119z" />
<glyph unicode="&#xe4;" horiz-adv-x="1110" d="M12 297q0 61 21.5 116.5t71 110t147.5 86t235 31.5q86 0 166 -14q0 18 -6 38.5t-24.5 53.5t-68.5 54.5t-126 21.5q-125 0 -330 -86l172 295q127 33 305 32q41 0 81 -3t113 -23.5t124 -56t91 -108.5t40 -171v-674h-371v162l-151 -180q-43 -6 -103 -7q-170 0 -278.5 82 t-108.5 240zM170 1341q0 66 45 114t115 48q72 0 118 -46t46 -115.5t-48.5 -115.5t-115.5 -46q-70 0 -115 45.5t-45 115.5zM383 311q0 -55 44 -79.5t101 -24.5q59 -1 125 22v191q-55 10 -90 10q-180 0 -180 -119zM600 1341q0 66 45 114t115 48q72 0 118 -46t46 -115.5 t-48.5 -115.5t-115.5 -46q-70 0 -115 45.5t-45 115.5z" />
<glyph unicode="&#xe5;" horiz-adv-x="1110" d="M12 297q0 61 21.5 116.5t71 110t147.5 86t235 31.5q86 0 166 -14q0 18 -6 38.5t-24.5 53.5t-68.5 54.5t-126 21.5q-125 0 -330 -86l172 295q127 33 305 32q41 0 81 -3t113 -23.5t124 -56t91 -108.5t40 -171v-674h-371v162l-151 -180q-43 -6 -103 -7q-170 0 -278.5 82 t-108.5 240zM344 1356q0 98 68.5 164.5t169.5 66.5q102 0 170.5 -66.5t68.5 -164.5q0 -100 -68.5 -167t-170.5 -67q-104 0 -171 66.5t-67 167.5zM383 311q0 -55 44 -79.5t101 -24.5q59 -1 125 22v191q-55 10 -90 10q-180 0 -180 -119zM496 1356q0 -39 23.5 -64.5t62.5 -25.5 t62.5 25.5t23.5 64.5t-23.5 63.5t-62.5 24.5q-37 0 -61.5 -25.5t-24.5 -62.5z" />
<glyph unicode="&#xe6;" horiz-adv-x="1748" d="M12 301q0 156 122 249t339 93q80 0 170 -18q0 72 -52 121t-171 49q-147 0 -324 -88l170 294q135 35 271 35q221 0 350 -100q129 100 315 100q121 0 231.5 -47t184.5 -137q70 -86 91.5 -186.5t21.5 -239.5h-699q53 -203 326 -203q174 0 352 82l-170 -295 q-150 -35 -323 -35q-322 0 -478 199l-125 -180q-70 -18 -161 -19q-238 0 -339.5 96.5t-101.5 229.5zM383 315q0 -109 186 -108q85 0 140 16q-51 92 -66 203q-37 6 -74 6q-186 0 -186 -117zM1018 623h338q-2 23 -6 45t-19.5 60t-51.5 61.5t-89 23.5q-145 0 -172 -190z" />
<glyph unicode="&#xe7;" horiz-adv-x="980" d="M39 510q0 135 59.5 252t196.5 196.5t332 79.5q172 0 311 -61v-318q-102 106 -238 107q-111 0 -180 -72.5t-69 -183.5q0 -109 71.5 -193t218.5 -84q86 0 240 52l-158 -279q-104 -23 -151 -26l-39 -76q76 -16 117 -67.5t41 -121.5q0 -113 -106.5 -186.5t-319.5 -75.5v180 q150 10 149 97q0 41 -27.5 64.5t-66.5 27.5l76 160q-207 29 -332 173t-125 355z" />
<glyph unicode="&#xe8;" horiz-adv-x="1193" d="M39 504q0 92 26.5 177t86 169t180.5 135t286 51q109 0 202 -27.5t176 -90t131.5 -178t48.5 -273.5v-39h-713q59 -201 330 -201q190 0 348 74l-168 -293q-152 -33 -326 -33q-369 0 -524 232q-84 129 -84 297zM344 1397v313l477 -340v-283zM449 625h352q-12 74 -15 80 q-43 111 -159 110q-61 0 -113.5 -44t-64.5 -146z" />
<glyph unicode="&#xe9;" horiz-adv-x="1193" d="M39 504q0 92 26.5 177t86 169t180.5 135t286 51q109 0 202 -27.5t176 -90t131.5 -178t48.5 -273.5v-39h-713q59 -201 330 -201q190 0 348 74l-168 -293q-152 -33 -326 -33q-369 0 -524 232q-84 129 -84 297zM449 625h352q-12 74 -15 80q-43 111 -159 110 q-61 0 -113.5 -44t-64.5 -146zM459 1092v274l477 344v-311z" />
<glyph unicode="&#xea;" horiz-adv-x="1193" d="M39 504q0 92 26.5 177t86 169t180.5 135t286 51q109 0 202 -27.5t176 -90t131.5 -178t48.5 -273.5v-39h-713q59 -201 330 -201q190 0 348 74l-168 -293q-152 -33 -326 -33q-369 0 -524 232q-84 129 -84 297zM313 1096v254l326 284l332 -278v-260l-332 239zM449 625h352 q-12 74 -15 80q-43 111 -159 110q-61 0 -113.5 -44t-64.5 -146z" />
<glyph unicode="&#xeb;" horiz-adv-x="1193" d="M39 504q0 92 26.5 177t86 169t180.5 135t286 51q109 0 202 -27.5t176 -90t131.5 -178t48.5 -273.5v-39h-713q59 -201 330 -201q190 0 348 74l-168 -293q-152 -33 -326 -33q-369 0 -524 232q-84 129 -84 297zM246 1341q0 66 45 114t115 48q72 0 117.5 -46t45.5 -115.5 t-48 -115.5t-115 -46q-70 0 -115 45.5t-45 115.5zM449 625h352q-12 74 -15 80q-43 111 -159 110q-61 0 -113.5 -44t-64.5 -146zM676 1341q0 66 45 114t115 48q72 0 117.5 -46t45.5 -115.5t-48 -115.5t-115 -46q-70 0 -115 45.5t-45 115.5z" />
<glyph unicode="&#xec;" horiz-adv-x="555" d="M25 1397v313l477 -340v-283zM78 0v1012h397v-1012h-397z" />
<glyph unicode="&#xed;" horiz-adv-x="555" d="M47 1092v274l477 344v-311zM78 0v1012h397v-1012h-397z" />
<glyph unicode="&#xee;" horiz-adv-x="555" d="M-39 1096v254l326 284l331 -278v-260l-331 239zM78 0v1012h397v-1012h-397z" />
<glyph unicode="&#xef;" horiz-adv-x="555" d="M-102 1341q0 66 45 114t114 48q72 0 118 -46t46 -115.5t-48 -115.5t-116 -46q-70 0 -114.5 45.5t-44.5 115.5zM78 0v1012h397v-1012h-397zM328 1341q0 66 45 114t114 48q72 0 118 -46t46 -115.5t-48 -115.5t-116 -46q-70 0 -114.5 45.5t-44.5 115.5z" />
<glyph unicode="&#xf0;" d="M39 516q0 219 135 370.5t361 151.5q72 0 153 -30q-20 49 -78 141l-264 -84l-80 143l228 72q-51 47 -117 88l373 141q88 -72 122 -106l179 57l73 -143l-139 -47q217 -289 217 -664q0 -301 -147.5 -466t-452.5 -165q-248 0 -405.5 143.5t-157.5 397.5zM457 532 q0 -295 170 -294q159 0 159 268q0 274 -161 274q-168 0 -168 -248z" />
<glyph unicode="&#xf1;" d="M84 0v1012h389v-256l186 254q82 27 170 26q160 0 242 -88t82 -248v-700h-389v549q0 201 -158 201q-66 0 -133 -58v-692h-389zM289 1165v228q25 31 41 49t59 38.5t94 20.5q55 0 157.5 -41t147.5 -41q105 0 179 94v-239q-68 -102 -183 -103q-51 0 -194 50q-84 29 -121 28 q-96 0 -180 -84z" />
<glyph unicode="&#xf2;" d="M39 506q0 176 87 300t215 177t284 53q258 0 415.5 -140t157.5 -376q0 -248 -151.5 -396.5t-436.5 -148.5q-268 0 -419.5 147.5t-151.5 383.5zM356 1397v313l478 -340v-283zM455 510q0 -272 166 -272q162 0 161 274q0 268 -161 268q-166 0 -166 -270z" />
<glyph unicode="&#xf3;" d="M39 506q0 176 87 300t215 177t284 53q258 0 415.5 -140t157.5 -376q0 -248 -151.5 -396.5t-436.5 -148.5q-268 0 -419.5 147.5t-151.5 383.5zM451 1092v274l477 344v-311zM455 510q0 -272 166 -272q162 0 161 274q0 268 -161 268q-166 0 -166 -270z" />
<glyph unicode="&#xf4;" d="M39 506q0 176 87 300t215 177t284 53q258 0 415.5 -140t157.5 -376q0 -248 -151.5 -396.5t-436.5 -148.5q-268 0 -419.5 147.5t-151.5 383.5zM305 1096v254l326 284l332 -278v-260l-332 239zM455 510q0 -272 166 -272q162 0 161 274q0 268 -161 268q-166 0 -166 -270z " />
<glyph unicode="&#xf5;" d="M39 506q0 176 87 300t215 177t284 53q258 0 415.5 -140t157.5 -376q0 -248 -151.5 -396.5t-436.5 -148.5q-268 0 -419.5 147.5t-151.5 383.5zM281 1165v228q25 31 41 49t59 38.5t94 20.5q55 0 157.5 -41t147.5 -41q104 0 178 94v-239q-68 -102 -182 -103q-51 0 -194 50 q-84 29 -121 28q-96 0 -180 -84zM455 510q0 -272 166 -272q162 0 161 274q0 268 -161 268q-166 0 -166 -270z" />
<glyph unicode="&#xf6;" d="M39 506q0 176 87 300t215 177t284 53q258 0 415.5 -140t157.5 -376q0 -248 -151.5 -396.5t-436.5 -148.5q-268 0 -419.5 147.5t-151.5 383.5zM238 1341q0 66 45 114t114 48q72 0 118 -46t46 -115.5t-48 -115.5t-116 -46q-70 0 -114.5 45.5t-44.5 115.5zM455 510 q0 -272 166 -272q162 0 161 274q0 268 -161 268q-166 0 -166 -270zM668 1341q0 66 45 114t114 48q72 0 118 -46t46 -115.5t-48 -115.5t-116 -46q-70 0 -114.5 45.5t-44.5 115.5z" />
<glyph unicode="&#xf7;" horiz-adv-x="1482" d="M162 514v336h1157v-336h-1157zM526 238q0 90 59.5 150.5t149.5 60.5t151.5 -63t61.5 -153q0 -86 -61.5 -145t-149.5 -59q-90 0 -150.5 60.5t-60.5 148.5zM528 1126.5q0 90.5 59.5 149.5t149.5 59t150.5 -60.5t60.5 -150.5t-59.5 -149.5t-149.5 -59.5q-88 0 -149.5 60.5 t-61.5 151z" />
<glyph unicode="&#xf8;" d="M-12 80l137 127q-88 127 -88 297q0 125 45 223q25 51 62.5 99t100 98.5t159 81t210.5 30.5q186 0 332 -82l160 144l143 -160l-145 -135q94 -115 94 -295q0 -246 -165 -390.5t-404 -144.5q-176 0 -336 80l-158 -141zM432 487l291 265q-39 39 -102 39q-109 0 -149 -82.5 t-40 -221.5zM510 258q45 -45 111 -45q76 0 129 62.5t53 199.5q0 8 -1 25.5t-1 21.5z" />
<glyph unicode="&#xf9;" d="M84 317v695h393v-582q0 -166 133 -166q59 0 154 60v688h389v-1012h-389v258l-182 -254q-92 -29 -166 -29q-29 0 -58.5 3.5t-83 22.5t-92.5 52t-68.5 101.5t-29.5 162.5zM311 1397v313l477 -340v-283z" />
<glyph unicode="&#xfa;" d="M84 317v695h393v-582q0 -166 133 -166q59 0 154 60v688h389v-1012h-389v258l-182 -254q-92 -29 -166 -29q-29 0 -58.5 3.5t-83 22.5t-92.5 52t-68.5 101.5t-29.5 162.5zM494 1092v274l477 344v-311z" />
<glyph unicode="&#xfb;" d="M84 317v695h393v-582q0 -166 133 -166q59 0 154 60v688h389v-1012h-389v258l-182 -254q-92 -29 -166 -29q-29 0 -58.5 3.5t-83 22.5t-92.5 52t-68.5 101.5t-29.5 162.5zM299 1096v254l326 284l331 -278v-260l-331 239z" />
<glyph unicode="&#xfc;" d="M84 317v695h393v-582q0 -166 133 -166q59 0 154 60v688h389v-1012h-389v258l-182 -254q-92 -29 -166 -29q-29 0 -58.5 3.5t-83 22.5t-92.5 52t-68.5 101.5t-29.5 162.5zM248 1341q0 66 45 114t115 48q72 0 117.5 -46t45.5 -115.5t-48 -115.5t-115 -46q-70 0 -115 45.5 t-45 115.5zM678 1341q0 66 45 114t115 48q72 0 117.5 -46t45.5 -115.5t-48 -115.5t-115 -46q-70 0 -115 45.5t-45 115.5z" />
<glyph unicode="&#xfd;" horiz-adv-x="1193" d="M0 1012h416l192 -662l191 662h395l-369 -963q-74 -199 -155 -287q-152 -166 -467 -165q-102 0 -185 18l101 270q29 -14 67 -14q51 0 110.5 31.5t84.5 109.5zM471 1092v274l477 344v-311z" />
<glyph unicode="&#xfe;" d="M84 -428v1874h403v-664l156 230q61 25 135 24q111 0 196 -48t132 -126t69.5 -165t22.5 -177q0 -141 -43 -250.5t-112.5 -171t-146.5 -92.5t-155 -31q-137 0 -254 80v-483h-403zM487 307q61 -51 121 -51q80 0 131.5 69.5t51.5 192.5t-54.5 186.5t-136.5 63.5 q-58 0 -113 -33v-428z" />
<glyph unicode="&#xff;" horiz-adv-x="1193" d="M0 1012h416l192 -662l191 662h395l-369 -963q-74 -199 -155 -287q-152 -166 -467 -165q-102 0 -185 18l101 270q29 -14 67 -14q51 0 110.5 31.5t84.5 109.5zM219 1341q0 66 45 114t115 48q72 0 118 -46t46 -115.5t-48.5 -115.5t-115.5 -46q-70 0 -115 45.5t-45 115.5z M649 1341q0 66 45 114t115 48q72 0 118 -46t46 -115.5t-48 -115.5t-116 -46q-70 0 -115 45.5t-45 115.5z" />
<glyph unicode="&#x152;" horiz-adv-x="2217" d="M49 709q0 346 232 563q223 211 553 211q125 0 266 -37h995v-342h-543v-197h463v-342h-463v-219h666l-203 -346h-917q-133 -37 -262 -37q-356 0 -571.5 210t-215.5 536zM535 707q0 -27 3 -58t13 -83t34.5 -97t60.5 -87t97.5 -66.5t139.5 -24.5q121 0 217 49v770 q-129 43 -205 43q-115 0 -193 -53q-168 -109 -167 -393z" />
<glyph unicode="&#x153;" horiz-adv-x="1921" d="M39 500q0 258 167 398t421 140q78 0 188.5 -24.5t169.5 -75.5q168 98 354 98q76 0 142.5 -11t147.5 -48t138.5 -99.5t96.5 -175t39 -262.5v-16h-699q16 -41 33.5 -67.5t51.5 -60.5t94.5 -50.5t142.5 -16.5q168 0 354 80l-172 -297q-172 -37 -317 -37q-256 0 -408 105 q-160 -104 -381 -105q-236 0 -379 109q-184 137 -184 416zM446 510q0 -133 52 -209q45 -66 120 -65q92 0 138 94q32 69 32 196q0 59 -12 110.5t-52 95.5t-101 44q-94 0 -135.5 -83t-41.5 -183zM1188 621h336q-4 82 -46 135t-122 53q-51 0 -87 -24.5t-52.5 -62.5t-21.5 -60.5 t-7 -40.5z" />
<glyph unicode="&#x178;" horiz-adv-x="1492" d="M0 1446h516l244 -492l248 492h485l-516 -928v-518h-461v518zM365 1731q0 68 47 119t116 51q72 0 119 -48.5t47 -122t-48 -121.5t-117.5 -48t-116.5 49t-47 121zM819 1731q0 68 46 119t116 51q72 0 120 -48.5t48 -122t-49 -121.5t-119 -48t-116 49t-46 121z" />
<glyph unicode="&#x2c6;" horiz-adv-x="641" d="M-8 1096v254l325 284l332 -278v-260l-332 239z" />
<glyph unicode="&#x2dc;" horiz-adv-x="641" d="M-16 1165v228q25 31 41 49t59 38.5t94 20.5q55 0 157.5 -41t147.5 -41q105 0 179 94v-239q-68 -102 -183 -103q-51 0 -194 50q-84 29 -121 28q-96 0 -180 -84z" />
<glyph unicode="&#x2000;" horiz-adv-x="1011" />
<glyph unicode="&#x2001;" horiz-adv-x="2023" />
<glyph unicode="&#x2002;" horiz-adv-x="1011" />
<glyph unicode="&#x2003;" horiz-adv-x="2023" />
<glyph unicode="&#x2004;" horiz-adv-x="674" />
<glyph unicode="&#x2005;" horiz-adv-x="505" />
<glyph unicode="&#x2006;" horiz-adv-x="337" />
<glyph unicode="&#x2007;" horiz-adv-x="337" />
<glyph unicode="&#x2008;" horiz-adv-x="252" />
<glyph unicode="&#x2009;" horiz-adv-x="404" />
<glyph unicode="&#x200a;" horiz-adv-x="112" />
<glyph unicode="&#x2010;" horiz-adv-x="854" d="M0 412l184 266h670l-184 -266h-670z" />
<glyph unicode="&#x2011;" horiz-adv-x="854" d="M0 412l184 266h670l-184 -266h-670z" />
<glyph unicode="&#x2012;" horiz-adv-x="854" d="M0 412l184 266h670l-184 -266h-670z" />
<glyph unicode="&#x2013;" horiz-adv-x="1280" d="M0 412l184 266h1096l-186 -266h-1094z" />
<glyph unicode="&#x2014;" horiz-adv-x="1712" d="M0 412l184 266h1528l-186 -266h-1526z" />
<glyph unicode="&#x2018;" horiz-adv-x="512" d="M-37 887l322 559h188l-207 -559h-303z" />
<glyph unicode="&#x2019;" horiz-adv-x="512" d="M39 887l205 559h305l-320 -559h-190z" />
<glyph unicode="&#x201a;" horiz-adv-x="512" d="M39 -215l205 559h305l-320 -559h-190z" />
<glyph unicode="&#x201c;" horiz-adv-x="980" d="M-37 887l320 559h190l-207 -559h-303zM432 887l322 559h188l-205 -559h-305z" />
<glyph unicode="&#x201d;" horiz-adv-x="980" d="M39 887l205 559h305l-320 -559h-190zM508 887l207 559h303l-320 -559h-190z" />
<glyph unicode="&#x201e;" horiz-adv-x="980" d="M-18 -215l206 559h304l-320 -559h-190zM451 -215l206 559h304l-320 -559h-190z" />
<glyph unicode="&#x2022;" horiz-adv-x="681" d="M23 721q0 131 95 224t228 93q131 0 221 -90t90 -223q0 -143 -87 -233.5t-226 -90.5q-133 0 -227 93.5t-94 226.5z" />
<glyph unicode="&#x2026;" horiz-adv-x="2048" d="M176 143.5q0 71.5 47 119.5t117 48q72 0 120 -48t48 -119.5t-47 -120t-119 -48.5q-70 0 -118 48.5t-48 120zM858 143.5q0 71.5 47 119.5t119 48t119 -48t47 -119.5t-47 -120t-119 -48.5q-70 0 -118 48.5t-48 120zM1540 143.5q0 71.5 47 119.5t119 48t119 -48t47 -119.5 t-47 -120t-119 -48.5q-70 0 -118 48.5t-48 120z" />
<glyph unicode="&#x202f;" horiz-adv-x="404" />
<glyph unicode="&#x2039;" horiz-adv-x="555" d="M-2 549l221 319h338l-223 -319l223 -324h-338z" />
<glyph unicode="&#x203a;" horiz-adv-x="555" d="M-2 225l221 320l-221 323h338l221 -323l-221 -320h-338z" />
<glyph unicode="&#x205f;" horiz-adv-x="505" />
<glyph unicode="&#x20ac;" horiz-adv-x="1402" d="M115 436v201h108v14q0 57 2 97h-110v204h141q63 231 238.5 353t445.5 122q205 0 346 -49v-336q-150 66 -301 66q-217 0 -297 -156h434v-204h-483q-2 -33 -2 -86v-25h485v-201h-440q78 -166 317 -166q84 0 188.5 21.5t170.5 52.5l-156 -346q-143 -29 -282 -29 q-274 0 -439.5 127t-224.5 340h-141z" />
<glyph unicode="&#x2122;" horiz-adv-x="1515" d="M31 1272v174h573v-174h-178v-506h-217v506h-178zM606 766l86 680h230l106 -283l107 283h217l100 -680h-203l-59 387l-168 -387h-18l-154 383l-39 -383h-205z" />
<glyph unicode="&#xe000;" horiz-adv-x="1013" d="M0 0v1014h1014v-1014h-1014z" />
<glyph unicode="&#xfb01;" horiz-adv-x="1323" d="M-49 733l135 279h23v39q0 197 110 311q121 121 356 121q109 0 222 -29v-285q-57 29 -125 29t-115 -39t-47 -119v-28h227v-279h-227v-733h-401v733h-158zM846 0v1012h397v-1012h-397zM846 1306.5q0 79.5 59.5 128t139 48.5t139 -48.5t59.5 -128t-57.5 -128t-141.5 -48.5 q-80 0 -139 48.5t-59 128z" />
<glyph unicode="&#xfb02;" horiz-adv-x="1323" d="M-49 733l135 279h23v39q0 197 110 311q121 121 356 121q109 0 222 -29v-285q-57 29 -125 29t-115 -39t-47 -119v-28h227v-279h-227v-733h-401v733h-158zM844 0v1446h401v-1446h-401z" />
</font>
</defs>
</svg>
